  0
SECTION
  2
HEADER
  9
$ACADVER
  1
AC1014
  9
$ACADMAINTVER
 70
     0
  9
$DWGCODEPAGE
  3
ANSI_1252
  9
$INSBASE
 10
536.791248
 20
-68.169665
 30
0.0
  9
$EXTMIN
 10
109.411794
 20
200.189165
 30
0.0
  9
$EXTMAX
 10
485.685823
 20
710.162015
 30
0.0
  9
$LIMMIN
 10
0.0
 20
0.0
  9
$LIMMAX
 10
594.0
 20
841.0
  9
$ORTHOMODE
 70
     1
  9
$REGENMODE
 70
     1
  9
$FILLMODE
 70
     1
  9
$QTEXTMODE
 70
     0
  9
$MIRRTEXT
 70
     0
  9
$DRAGMODE
 70
     2
  9
$LTSCALE
 40
1.0
  9
$OSMODE
 70
    39
  9
$ATTMODE
 70
     1
  9
$TEXTSIZE
 40
3.0
  9
$TRACEWID
 40
0.5
  9
$TEXTSTYLE
  7
STANDARD
  9
$CLAYER
  8
DIMENSION
  9
$CELTYPE
  6
BYLAYER
  9
$CECOLOR
 62
   256
  9
$CELTSCALE
 40
1.0
  9
$DELOBJ
 70
     1
  9
$DISPSILH
 70
     0
  9
$DIMSCALE
 40
1.5
  9
$DIMASZ
 40
3.5
  9
$DIMEXO
 40
2.0
  9
$DIMDLI
 40
0.38
  9
$DIMRND
 40
0.0
  9
$DIMDLE
 40
0.0
  9
$DIMEXE
 40
2.0
  9
$DIMTP
 40
0.0
  9
$DIMTM
 40
0.0
  9
$DIMTXT
 40
3.0
  9
$DIMCEN
 40
0.0
  9
$DIMTSZ
 40
0.0
  9
$DIMTOL
 70
     0
  9
$DIMLIM
 70
     0
  9
$DIMTIH
 70
     0
  9
$DIMTOH
 70
     0
  9
$DIMSE1
 70
     0
  9
$DIMSE2
 70
     0
  9
$DIMTAD
 70
     1
  9
$DIMZIN
 70
     9
  9
$DIMBLK
  1

  9
$DIMASO
 70
     1
  9
$DIMSHO
 70
     0
  9
$DIMPOST
  1

  9
$DIMAPOST
  1

  9
$DIMALT
 70
     0
  9
$DIMALTD
 70
     2
  9
$DIMALTF
 40
25.4
  9
$DIMLFAC
 40
1.0
  9
$DIMTOFL
 70
     0
  9
$DIMTVP
 40
0.0
  9
$DIMTIX
 70
     0
  9
$DIMSOXD
 70
     0
  9
$DIMSAH
 70
     0
  9
$DIMBLK1
  1

  9
$DIMBLK2
  1

  9
$DIMSTYLE
  2
BRIAN
  9
$DIMCLRD
 70
     0
  9
$DIMCLRE
 70
     0
  9
$DIMCLRT
 70
     7
  9
$DIMTFAC
 40
1.0
  9
$DIMGAP
 40
2.0
  9
$DIMJUST
 70
     0
  9
$DIMSD1
 70
     0
  9
$DIMSD2
 70
     0
  9
$DIMTOLJ
 70
     1
  9
$DIMTZIN
 70
     0
  9
$DIMALTZ
 70
     0
  9
$DIMALTTZ
 70
     0
  9
$DIMFIT
 70
     0
  9
$DIMUPT
 70
     0
  9
$DIMUNIT
 70
     2
  9
$DIMDEC
 70
     2
  9
$DIMTDEC
 70
     2
  9
$DIMALTU
 70
     2
  9
$DIMALTTD
 70
     2
  9
$DIMTXSTY
  7
STANDARD
  9
$DIMAUNIT
 70
     0
  9
$LUNITS
 70
     2
  9
$LUPREC
 70
     2
  9
$SKETCHINC
 40
1.0
  9
$FILLETRAD
 40
0.0
  9
$AUNITS
 70
     0
  9
$AUPREC
 70
     4
  9
$MENU
  1
THURNALL
  9
$ELEVATION
 40
0.0
  9
$PELEVATION
 40
0.0
  9
$THICKNESS
 40
0.0
  9
$LIMCHECK
 70
     0
  9
$BLIPMODE
 70
     0
  9
$CHAMFERA
 40
0.5
  9
$CHAMFERB
 40
0.5
  9
$CHAMFERC
 40
0.0
  9
$CHAMFERD
 40
0.0
  9
$SKPOLY
 70
     1
  9
$TDCREATE
 40
2450529.389001504
  9
$TDUPDATE
 40
2452696.324750694
  9
$TDINDWG
 40
1.3871609954
  9
$TDUSRTIMER
 40
1.3871609954
  9
$USRTIMER
 70
     1
  9
$ANGBASE
 50
0.0
  9
$ANGDIR
 70
     0
  9
$PDMODE
 70
     0
  9
$PDSIZE
 40
0.0
  9
$PLINEWID
 40
0.0
  9
$COORDS
 70
     2
  9
$SPLFRAME
 70
     0
  9
$SPLINETYPE
 70
     6
  9
$SPLINESEGS
 70
     8
  9
$ATTDIA
 70
     0
  9
$ATTREQ
 70
     1
  9
$HANDLING
 70
     1
  9
$HANDSEED
  5
57B
  9
$SURFTAB1
 70
     6
  9
$SURFTAB2
 70
     6
  9
$SURFTYPE
 70
     6
  9
$SURFU
 70
     6
  9
$SURFV
 70
     6
  9
$UCSNAME
  2

  9
$UCSORG
 10
0.0
 20
0.0
 30
0.0
  9
$UCSXDIR
 10
1.0
 20
0.0
 30
0.0
  9
$UCSYDIR
 10
0.0
 20
1.0
 30
0.0
  9
$PUCSNAME
  2

  9
$PUCSORG
 10
0.0
 20
0.0
 30
0.0
  9
$PUCSXDIR
 10
1.0
 20
0.0
 30
0.0
  9
$PUCSYDIR
 10
0.0
 20
1.0
 30
0.0
  9
$USERI1
 70
     0
  9
$USERI2
 70
     1
  9
$USERI3
 70
     0
  9
$USERI4
 70
     0
  9
$USERI5
 70
     0
  9
$USERR1
 40
900.0
  9
$USERR2
 40
900.0
  9
$USERR3
 40
50.0
  9
$USERR4
 40
0.0
  9
$USERR5
 40
3600.0
  9
$WORLDVIEW
 70
     0
  9
$SHADEDGE
 70
     3
  9
$SHADEDIF
 70
    70
  9
$TILEMODE
 70
     1
  9
$MAXACTVP
 70
    16
  9
$PINSBASE
 10
0.0
 20
0.0
 30
0.0
  9
$PLIMCHECK
 70
     0
  9
$PEXTMIN
 10
1.000000E+20
 20
1.000000E+20
 30
1.000000E+20
  9
$PEXTMAX
 10
-1.000000E+20
 20
-1.000000E+20
 30
-1.000000E+20
  9
$PLIMMIN
 10
0.0
 20
0.0
  9
$PLIMMAX
 10
12.0
 20
9.0
  9
$UNITMODE
 70
     0
  9
$VISRETAIN
 70
     0
  9
$PLINEGEN
 70
     0
  9
$PSLTSCALE
 70
     0
  9
$TREEDEPTH
 70
  3020
  9
$PICKSTYLE
 70
     1
  9
$CMLSTYLE
  2
STANDARD
  9
$CMLJUST
 70
     0
  9
$CMLSCALE
 40
1.0
  9
$PROXYGRAPHICS
 70
     1
  9
$MEASUREMENT
 70
     0
  0
ENDSEC
  0
SECTION
  2
CLASSES
  0
CLASS
  1
DICTIONARYVAR
  2
AcDbDictionaryVar
  3
"AutoCAD"
 90
        0
280
     0
281
     0
  0
CLASS
  1
LWPOLYLINE
  2
AcDbPolyline
  3
"AutoCAD"
 90
        0
280
     0
281
     1
  0
ENDSEC
  0
SECTION
  2
TABLES
  0
TABLE
  2
VPORT
  5
12
100
AcDbSymbolTable
 70
     1
  0
VPORT
  5
577
100
AcDbSymbolTableRecord
100
AcDbViewportTableRecord
  2
*ACTIVE
 70
     0
 10
0.0
 20
0.0
 11
1.0
 21
1.0
 12
303.20168
 22
472.070052
 13
0.0
 23
0.0
 14
0.5
 24
0.5
 15
15.0
 25
15.0
 16
0.0
 26
0.0
 36
1.0
 17
0.0
 27
0.0
 37
0.0
 40
577.51869
 41
1.806641
 42
50.0
 43
0.0
 44
0.0
 50
0.0
 51
0.0
 71
     0
 72
 20000
 73
     1
 74
     0
 75
     0
 76
     0
 77
     0
 78
     1
  0
ENDTAB
  0
TABLE
  2
LTYPE
  5
D
100
AcDbSymbolTable
 70
     5
  0
LTYPE
  5
E
100
AcDbSymbolTableRecord
100
AcDbLinetypeTableRecord
  2
BYBLOCK
 70
     0
  3

 72
    65
 73
     0
 40
0.0
  0
LTYPE
  5
F
100
AcDbSymbolTableRecord
100
AcDbLinetypeTableRecord
  2
BYLAYER
 70
     0
  3

 72
    65
 73
     0
 40
0.0
  0
LTYPE
  5
5
100
AcDbSymbolTableRecord
100
AcDbLinetypeTableRecord
  2
CONTINUOUS
 70
     0
  3
Solid line
 72
    65
 73
     0
 40
0.0
  0
LTYPE
  5
39F
100
AcDbSymbolTableRecord
100
AcDbLinetypeTableRecord
  2
CENTER
 70
     0
  3
____ _ ____ _ ____ _ ____ _ ____ _ ____ _ ____ 
 72
    65
 73
     4
 40
50.8
 49
31.75
 74
     0
 49
-6.35
 74
     0
 49
6.35
 74
     0
 49
-6.35
 74
     0
  0
LTYPE
  5
137
100
AcDbSymbolTableRecord
100
AcDbLinetypeTableRecord
  2
CENTRE
 70
     0
  3
____ _ ____ _ ____ _ ____ _ ____ _ ____ _ ____
 72
    65
 73
     4
 40
2.0
 49
1.25
 74
     0
 49
-0.25
 74
     0
 49
0.25
 74
     0
 49
-0.25
 74
     0
  0
LTYPE
  5
25
100
AcDbSymbolTableRecord
100
AcDbLinetypeTableRecord
  2
CENTER2
 70
     0
  3
___ _ ___ _ ___ _ ___ _ ___ _ ___ _ ___ _ ___ _
 72
    65
 73
     4
 40
28.575
 49
19.05
 74
     0
 49
-3.175
 74
     0
 49
3.175
 74
     0
 49
-3.175
 74
     0
  0
LTYPE
  5
29
100
AcDbSymbolTableRecord
100
AcDbLinetypeTableRecord
  2
CENTRE2
 70
     0
  3
___ _ ___ _ ___ _ ___ _ ___ _ ___ _ ___ _ ___ _
 72
    65
 73
     4
 40
28.575
 49
19.05
 74
     0
 49
-3.175
 74
     0
 49
3.175
 74
     0
 49
-3.175
 74
     0
  0
ENDTAB
  0
TABLE
  2
LAYER
  5
A
100
AcDbSymbolTable
 70
     6
  0
LAYER
  5
4
100
AcDbSymbolTableRecord
100
AcDbLayerTableRecord
  2
0
 70
     0
 62
     6
  6
CONTINUOUS
  0
LAYER
  5
3A
100
AcDbSymbolTableRecord
100
AcDbLayerTableRecord
  2
DEFPOINTS
 70
     0
 62
     7
  6
CONTINUOUS
  0
LAYER
  5
31
100
AcDbSymbolTableRecord
100
AcDbLayerTableRecord
  2
DIMENSION
 70
     0
 62
     7
  6
CONTINUOUS
  0
LAYER
  5
1B
100
AcDbSymbolTableRecord
100
AcDbLayerTableRecord
  2
OUTLINE
 70
     0
 62
     1
  6
CONTINUOUS
  0
LAYER
  5
24
100
AcDbSymbolTableRecord
100
AcDbLayerTableRecord
  2
GRIPPER
 70
     0
 62
     1
  6
CONTINUOUS
  0
LAYER
  5
F1
100
AcDbSymbolTableRecord
100
AcDbLayerTableRecord
  2
DIM_GRIP
 70
     0
 62
     7
  6
CONTINUOUS
  0
ENDTAB
  0
TABLE
  2
STYLE
  5
B
100
AcDbSymbolTable
 70
     2
  0
STYLE
  5
C
100
AcDbSymbolTableRecord
100
AcDbTextStyleTableRecord
  2
STANDARD
 70
     0
 40
0.0
 41
1.0
 50
0.0
 71
     0
 42
3.0
  3
SIMPLEX
  4

  0
STYLE
  5
1C
100
AcDbSymbolTableRecord
100
AcDbTextStyleTableRecord
  2
ROMANS
 70
     0
 40
0.0
 41
1.0
 50
0.0
 71
     0
 42
6.0
  3
ROMANS.shx
  4

  0
ENDTAB
  0
TABLE
  2
VIEW
  5
10
100
AcDbSymbolTable
 70
     0
  0
ENDTAB
  0
TABLE
  2
UCS
  5
11
100
AcDbSymbolTable
 70
     0
  0
ENDTAB
  0
TABLE
  2
APPID
  5
14
100
AcDbSymbolTable
 70
     1
  0
APPID
  5
15
100
AcDbSymbolTableRecord
100
AcDbRegAppTableRecord
  2
ACAD
 70
     0
  0
ENDTAB
  0
TABLE
  2
DIMSTYLE
  5
16
100
AcDbSymbolTable
 70
     2
  0
DIMSTYLE
105
1E
100
AcDbSymbolTableRecord
100
AcDbDimStyleTableRecord
  2
DIA
 70
     0
  3
%%c<>
  4

  5

  6

  7

 40
1.5
 41
3.5
 42
2.0
 43
10.0
 44
2.0
 45
0.0
 46
0.0
 47
0.035
 48
0.0
140
3.0
141
1.0
142
0.0
143
25.4
144
1.0
145
0.666667
146
1.0
147
2.0
 71
     0
 72
     0
 73
     0
 74
     0
 75
     0
 76
     0
 77
     1
 78
     8
170
     0
171
     2
172
     0
173
     0
174
     0
175
     0
176
     0
177
     0
178
     7
270
     2
271
     2
272
     2
273
     2
274
     2
340
1C
275
     0
280
     0
281
     0
282
     0
283
     1
284
     0
285
     0
286
     0
287
     5
288
     0
  0
DIMSTYLE
105
40
102
{ACAD_REACTORS
330
1B1
102
}
100
AcDbSymbolTableRecord
100
AcDbDimStyleTableRecord
  2
BRIAN
 70
     0
  3

  4

  5

  6

  7

 40
1.5
 41
3.5
 42
2.0
 43
0.38
 44
2.0
 45
0.0
 46
0.0
 47
0.0
 48
0.0
140
3.0
141
0.0
142
0.0
143
25.4
144
1.0
145
0.0
146
1.0
147
2.0
 71
     0
 72
     0
 73
     0
 74
     0
 75
     0
 76
     0
 77
     1
 78
     9
170
     0
171
     2
172
     0
173
     0
174
     0
175
     0
176
     0
177
     0
178
     7
270
     2
271
     2
272
     2
273
     2
274
     2
340
C
275
     0
280
     0
281
     0
282
     0
283
     1
284
     0
285
     0
286
     0
287
     0
288
     0
  0
ENDTAB
  0
TABLE
  2
BLOCK_RECORD
  5
1
100
AcDbSymbolTable
 70
    19
  0
BLOCK_RECORD
  5
2
100
AcDbSymbolTableRecord
100
AcDbBlockTableRecord
  2
*MODEL_SPACE
  0
BLOCK_RECORD
  5
7
100
AcDbSymbolTableRecord
100
AcDbBlockTableRecord
  2
*PAPER_SPACE
  0
BLOCK_RECORD
  5
4F3
100
AcDbSymbolTableRecord
100
AcDbBlockTableRecord
  2
*D12
  0
ENDTAB
  0
ENDSEC
  0
SECTION
  2
BLOCKS
  0
BLOCK
  5
3
100
AcDbEntity
  8
0
100
AcDbBlockBegin
  2
*MODEL_SPACE
 70
     0
 10
0.0
 20
0.0
 30
0.0
  3
*MODEL_SPACE
  1

  0
ENDBLK
  5
6
100
AcDbEntity
  8
0
100
AcDbBlockEnd
  0
BLOCK
  5
8
100
AcDbEntity
 67
     1
  8
0
100
AcDbBlockBegin
  2
*PAPER_SPACE
 70
     0
 10
0.0
 20
0.0
 30
0.0
  3
*PAPER_SPACE
  1

  0
ENDBLK
  5
9
100
AcDbEntity
 67
     1
  8
0
100
AcDbBlockEnd
  0
BLOCK
  5
4F4
100
AcDbEntity
  8
0
100
AcDbBlockBegin
  2
*D12
 70
     1
 10
0.0
 20
0.0
 30
0.0
  3
*D12
  1

  0
LINE
  5
4F5
100
AcDbEntity
  8
0
  6
BYBLOCK
 62
     0
100
AcDbLine
 10
684.297495
 20
165.508023
 30
0.0
 11
684.297495
 21
143.494479
 31
0.0
  0
LINE
  5
4F6
100
AcDbEntity
  8
0
  6
BYBLOCK
 62
     0
100
AcDbLine
 10
729.560914
 20
165.508023
 30
0.0
 11
729.560914
 21
143.494479
 31
0.0
  0
LINE
  5
4F7
100
AcDbEntity
  8
0
  6
BYBLOCK
 62
     0
100
AcDbLine
 10
689.547495
 20
146.494479
 30
0.0
 11
724.310914
 21
146.494479
 31
0.0
  0
SOLID
  5
4F8
100
AcDbEntity
  8
0
  6
BYBLOCK
 62
     0
100
AcDbTrace
 10
689.547495
 20
147.369479
 30
0.0
 11
689.547495
 21
145.619479
 31
0.0
 12
684.297495
 22
146.494479
 32
0.0
 13
684.297495
 23
146.494479
 33
0.0
  0
SOLID
  5
4F9
100
AcDbEntity
  8
0
  6
BYBLOCK
 62
     0
100
AcDbTrace
 10
724.310914
 20
147.369479
 30
0.0
 11
724.310914
 21
145.619479
 31
0.0
 12
729.560914
 22
146.494479
 32
0.0
 13
729.560914
 23
146.494479
 33
0.0
  0
MTEXT
  5
4FA
100
AcDbEntity
  8
0
  6
BYBLOCK
 62
     7
100
AcDbMText
 10
706.929205
 20
151.744479
 30
0.0
 40
4.5
 41
0.0
 71
     5
 72
     1
  1
\A1;45 STROKE
  0
POINT
  5
4FB
100
AcDbEntity
  8
DEFPOINTS
  6
BYBLOCK
 62
     0
100
AcDbPoint
 10
684.297495
 20
168.508023
 30
0.0
  0
POINT
  5
4FC
100
AcDbEntity
  8
DEFPOINTS
  6
BYBLOCK
 62
     0
100
AcDbPoint
 10
729.560914
 20
168.508023
 30
0.0
  0
POINT
  5
4FD
100
AcDbEntity
  8
DEFPOINTS
  6
BYBLOCK
 62
     0
100
AcDbPoint
 10
729.560914
 20
146.494479
 30
0.0
  0
ENDBLK
  5
4FE
100
AcDbEntity
  8
0
100
AcDbBlockEnd
  0
ENDSEC
  0
SECTION
  2
ENTITIES
  0
LINE
  5
23
100
AcDbEntity
  8
GRIPPER
  6
CENTER2
100
AcDbLine
 10
211.598091
 20
518.175988
 30
0.0
 11
211.598091
 21
395.286195
 31
0.0
  0
LINE
  5
26
100
AcDbEntity
  8
GRIPPER
100
AcDbLine
 10
175.098091
 20
498.560865
 30
0.0
 11
175.098091
 21
479.540685
 31
0.0
  0
LINE
  5
27
100
AcDbEntity
  8
GRIPPER
100
AcDbLine
 10
248.098091
 20
498.560865
 30
0.0
 11
248.098091
 21
479.540685
 31
0.0
  0
LINE
  5
28
100
AcDbEntity
  8
GRIPPER
  6
CENTRE2
100
AcDbLine
 10
432.685823
 20
519.108746
 30
0.0
 11
432.685823
 21
402.77394
 31
0.0
  0
LINE
  5
2A
100
AcDbEntity
  8
GRIPPER
100
AcDbLine
 10
396.185823
 20
498.060865
 30
0.0
 11
396.185823
 21
420.060865
 31
0.0
  0
LINE
  5
2B
100
AcDbEntity
  8
GRIPPER
100
AcDbLine
 10
469.185823
 20
498.060865
 30
0.0
 11
469.185823
 21
420.060865
 31
0.0
  0
LINE
  5
2C
100
AcDbEntity
  8
GRIPPER
100
AcDbLine
 10
469.185823
 20
497.220865
 30
0.0
 11
469.185823
 21
475.484468
 31
0.0
  0
LINE
  5
2D
100
AcDbEntity
  8
GRIPPER
100
AcDbLine
 10
469.185823
 20
497.220865
 30
0.0
 11
469.185823
 21
475.484468
 31
0.0
  0
LINE
  5
2E
100
AcDbEntity
  8
GRIPPER
100
AcDbLine
 10
396.185823
 20
497.220865
 30
0.0
 11
396.185823
 21
475.484468
 31
0.0
  0
LINE
  5
2F
100
AcDbEntity
  8
GRIPPER
100
AcDbLine
 10
396.185823
 20
497.220865
 30
0.0
 11
396.185823
 21
475.484468
 31
0.0
  0
LINE
  5
97
100
AcDbEntity
  8
GRIPPER
  6
CONTINUOUS
100
AcDbLine
 10
127.411794
 20
301.137817
 30
0.0
 11
127.411794
 21
229.137817
 31
0.0
  0
LINE
  5
98
100
AcDbEntity
  8
GRIPPER
100
AcDbLine
 10
130.966381
 20
229.137817
 30
0.0
 11
130.966381
 21
301.137817
 31
0.0
  0
LINE
  5
99
100
AcDbEntity
  8
GRIPPER
100
AcDbLine
 10
286.857207
 20
229.137817
 30
0.0
 11
286.857207
 21
301.137817
 31
0.0
  0
LINE
  5
9A
100
AcDbEntity
  8
GRIPPER
  6
CENTRE2
100
AcDbLine
 10
208.911794
 20
333.577262
 30
0.0
 11
208.911794
 21
200.189165
 31
0.0
  0
LINE
  5
9B
100
AcDbEntity
  8
GRIPPER
  6
CONTINUOUS
100
AcDbLine
 10
290.411794
 20
301.137817
 30
0.0
 11
290.411794
 21
229.137817
 31
0.0
  0
ARC
  5
9C
100
AcDbEntity
  8
GRIPPER
100
AcDbCircle
 10
166.466168
 20
292.137817
 30
0.0
 40
3.0
100
AcDbArc
 50
250.020411
 51
193.498219
  0
ARC
  5
9D
100
AcDbEntity
  8
GRIPPER
100
AcDbCircle
 10
141.466168
 20
292.137817
 30
0.0
 40
3.0
100
AcDbArc
 50
250.020411
 51
193.498219
  0
CIRCLE
  5
9E
100
AcDbEntity
  8
GRIPPER
100
AcDbCircle
 10
141.466168
 20
292.137817
 30
0.0
 40
2.35
  0
LINE
  5
9F
100
AcDbEntity
  8
GRIPPER
100
AcDbLine
 10
141.466168
 20
296.637817
 30
0.0
 11
141.466168
 21
287.637817
 31
0.0
  0
CIRCLE
  5
A0
100
AcDbEntity
  8
GRIPPER
100
AcDbCircle
 10
153.966168
 20
292.137817
 30
0.0
 40
2.35
  0
LINE
  5
A1
100
AcDbEntity
  8
GRIPPER
100
AcDbLine
 10
153.966168
 20
296.637817
 30
0.0
 11
153.966168
 21
287.637817
 31
0.0
  0
ARC
  5
A2
100
AcDbEntity
  8
GRIPPER
100
AcDbCircle
 10
153.966168
 20
292.137817
 30
0.0
 40
3.0
100
AcDbArc
 50
250.020411
 51
193.498219
  0
CIRCLE
  5
A3
100
AcDbEntity
  8
GRIPPER
100
AcDbCircle
 10
166.466168
 20
292.137817
 30
0.0
 40
2.35
  0
LINE
  5
A4
100
AcDbEntity
  8
GRIPPER
100
AcDbLine
 10
166.466168
 20
296.637817
 30
0.0
 11
166.466168
 21
287.637817
 31
0.0
  0
CIRCLE
  5
A5
100
AcDbEntity
  8
GRIPPER
100
AcDbCircle
 10
178.966168
 20
292.137817
 30
0.0
 40
2.35
  0
LINE
  5
A6
100
AcDbEntity
  8
GRIPPER
100
AcDbLine
 10
178.966168
 20
296.637817
 30
0.0
 11
178.966168
 21
287.637817
 31
0.0
  0
ARC
  5
A7
100
AcDbEntity
  8
GRIPPER
100
AcDbCircle
 10
178.966168
 20
292.137817
 30
0.0
 40
3.0
100
AcDbArc
 50
250.020411
 51
193.498219
  0
LINE
  5
A8
100
AcDbEntity
  8
GRIPPER
100
AcDbLine
 10
251.357421
 20
296.637817
 30
0.0
 11
251.357421
 21
287.637817
 31
0.0
  0
CIRCLE
  5
A9
100
AcDbEntity
  8
GRIPPER
100
AcDbCircle
 10
251.357421
 20
292.137817
 30
0.0
 40
2.35
  0
ARC
  5
AA
100
AcDbEntity
  8
GRIPPER
100
AcDbCircle
 10
251.357421
 20
292.137817
 30
0.0
 40
3.0
100
AcDbArc
 50
346.501781
 51
289.979589
  0
LINE
  5
AB
100
AcDbEntity
  8
GRIPPER
100
AcDbLine
 10
238.857421
 20
296.637817
 30
0.0
 11
238.857421
 21
287.637817
 31
0.0
  0
CIRCLE
  5
AC
100
AcDbEntity
  8
GRIPPER
100
AcDbCircle
 10
238.857421
 20
292.137817
 30
0.0
 40
2.35
  0
ARC
  5
AD
100
AcDbEntity
  8
GRIPPER
100
AcDbCircle
 10
238.857421
 20
292.137817
 30
0.0
 40
3.0
100
AcDbArc
 50
346.501781
 51
289.979589
  0
LINE
  5
AE
100
AcDbEntity
  8
GRIPPER
100
AcDbLine
 10
263.857421
 20
296.637817
 30
0.0
 11
263.857421
 21
287.637817
 31
0.0
  0
CIRCLE
  5
AF
100
AcDbEntity
  8
GRIPPER
100
AcDbCircle
 10
263.857421
 20
292.137817
 30
0.0
 40
2.35
  0
LINE
  5
B0
100
AcDbEntity
  8
GRIPPER
100
AcDbLine
 10
276.357421
 20
296.637817
 30
0.0
 11
276.357421
 21
287.637817
 31
0.0
  0
CIRCLE
  5
B1
100
AcDbEntity
  8
GRIPPER
100
AcDbCircle
 10
276.357421
 20
292.137817
 30
0.0
 40
2.35
  0
ARC
  5
B2
100
AcDbEntity
  8
GRIPPER
100
AcDbCircle
 10
276.357421
 20
292.137817
 30
0.0
 40
3.0
100
AcDbArc
 50
346.501781
 51
289.979589
  0
ARC
  5
B3
100
AcDbEntity
  8
GRIPPER
100
AcDbCircle
 10
263.857421
 20
292.137817
 30
0.0
 40
3.0
100
AcDbArc
 50
346.501781
 51
289.979589
  0
CIRCLE
  5
B4
100
AcDbEntity
  8
GRIPPER
100
AcDbCircle
 10
141.466168
 20
292.137817
 30
0.0
 40
4.25
  0
CIRCLE
  5
B5
100
AcDbEntity
  8
GRIPPER
100
AcDbCircle
 10
153.966168
 20
292.137817
 30
0.0
 40
4.25
  0
CIRCLE
  5
B6
100
AcDbEntity
  8
GRIPPER
100
AcDbCircle
 10
166.466168
 20
292.137817
 30
0.0
 40
4.25
  0
CIRCLE
  5
B7
100
AcDbEntity
  8
GRIPPER
100
AcDbCircle
 10
178.966168
 20
292.137817
 30
0.0
 40
4.25
  0
CIRCLE
  5
B8
100
AcDbEntity
  8
GRIPPER
100
AcDbCircle
 10
238.857421
 20
292.137817
 30
0.0
 40
4.25
  0
CIRCLE
  5
B9
100
AcDbEntity
  8
GRIPPER
100
AcDbCircle
 10
251.357421
 20
292.137817
 30
0.0
 40
4.25
  0
CIRCLE
  5
BA
100
AcDbEntity
  8
GRIPPER
100
AcDbCircle
 10
263.857421
 20
292.137817
 30
0.0
 40
4.25
  0
CIRCLE
  5
BB
100
AcDbEntity
  8
GRIPPER
100
AcDbCircle
 10
276.357421
 20
292.137817
 30
0.0
 40
4.25
  0
LINE
  5
BC
100
AcDbEntity
  8
GRIPPER
100
AcDbLine
 10
188.966168
 20
277.837817
 30
0.0
 11
188.966168
 21
301.637817
 31
0.0
  0
LINE
  5
BD
100
AcDbEntity
  8
GRIPPER
100
AcDbLine
 10
188.966168
 20
277.837817
 30
0.0
 11
188.966168
 21
301.637817
 31
0.0
  0
LINE
  5
BE
100
AcDbEntity
  8
GRIPPER
100
AcDbLine
 10
228.857421
 20
277.837817
 30
0.0
 11
228.857421
 21
301.637817
 31
0.0
  0
LINE
  5
C0
100
AcDbEntity
  8
GRIPPER
100
AcDbLine
 10
127.911794
 20
228.637817
 30
0.0
 11
246.647719
 21
228.637817
 31
0.0
  0
LINE
  5
C1
100
AcDbEntity
  8
GRIPPER
  6
CENTRE2
100
AcDbLine
 10
109.411794
 20
265.137817
 30
0.0
 11
302.911794
 21
265.137817
 31
0.0
  0
LINE
  5
C2
100
AcDbEntity
  8
GRIPPER
100
AcDbLine
 10
188.966168
 20
229.137817
 30
0.0
 11
151.230243
 21
229.137817
 31
0.0
  0
LINE
  5
C3
100
AcDbEntity
  8
GRIPPER
100
AcDbLine
 10
183.696202
 20
277.837817
 30
0.0
 11
188.966168
 21
277.837817
 31
0.0
  0
LINE
  5
C4
100
AcDbEntity
  8
GRIPPER
100
AcDbLine
 10
183.696202
 20
252.437817
 30
0.0
 11
188.966168
 21
252.437817
 31
0.0
  0
ARC
  5
C5
100
AcDbEntity
  8
GRIPPER
100
AcDbCircle
 10
208.911794
 20
265.137817
 30
0.0
 40
52.5
100
AcDbArc
 50
224.046193
 51
315.953807
  0
ARC
  5
C6
100
AcDbEntity
  8
GRIPPER
100
AcDbCircle
 10
186.686794
 20
226.642988
 30
0.0
 40
3.25
100
AcDbArc
 50
142.135687
 51
37.864313
  0
ARC
  5
F2
100
AcDbEntity
  8
GRIPPER
100
AcDbCircle
 10
166.466168
 20
238.137817
 30
0.0
 40
3.0
100
AcDbArc
 50
166.501781
 51
109.979589
  0
LINE
  5
F3
100
AcDbEntity
  8
GRIPPER
100
AcDbLine
 10
153.966168
 20
233.637817
 30
0.0
 11
153.966168
 21
242.637817
 31
0.0
  0
LINE
  5
F4
100
AcDbEntity
  8
GRIPPER
100
AcDbLine
 10
141.466168
 20
233.637817
 30
0.0
 11
141.466168
 21
242.637817
 31
0.0
  0
ARC
  5
F5
100
AcDbEntity
  8
GRIPPER
100
AcDbCircle
 10
141.466168
 20
238.137817
 30
0.0
 40
3.0
100
AcDbArc
 50
166.501781
 51
109.979589
  0
ARC
  5
F6
100
AcDbEntity
  8
GRIPPER
100
AcDbCircle
 10
153.966168
 20
238.137817
 30
0.0
 40
3.0
100
AcDbArc
 50
166.501781
 51
109.979589
  0
LINE
  5
F7
100
AcDbEntity
  8
GRIPPER
100
AcDbLine
 10
166.466168
 20
233.637817
 30
0.0
 11
166.466168
 21
242.637817
 31
0.0
  0
LINE
  5
F8
100
AcDbEntity
  8
GRIPPER
100
AcDbLine
 10
178.966168
 20
233.637817
 30
0.0
 11
178.966168
 21
242.637817
 31
0.0
  0
ARC
  5
F9
100
AcDbEntity
  8
GRIPPER
100
AcDbCircle
 10
178.966168
 20
238.137817
 30
0.0
 40
3.0
100
AcDbArc
 50
166.501781
 51
109.979589
  0
CIRCLE
  5
FA
100
AcDbEntity
  8
GRIPPER
100
AcDbCircle
 10
141.466168
 20
238.137817
 30
0.0
 40
4.25
  0
CIRCLE
  5
FB
100
AcDbEntity
  8
GRIPPER
100
AcDbCircle
 10
153.966168
 20
238.137817
 30
0.0
 40
4.25
  0
CIRCLE
  5
FC
100
AcDbEntity
  8
GRIPPER
100
AcDbCircle
 10
166.466168
 20
238.137817
 30
0.0
 40
4.25
  0
CIRCLE
  5
FD
100
AcDbEntity
  8
GRIPPER
100
AcDbCircle
 10
178.966168
 20
238.137817
 30
0.0
 40
4.25
  0
LINE
  5
FF
100
AcDbEntity
  8
GRIPPER
100
AcDbLine
 10
151.230243
 20
229.137817
 30
0.0
 11
130.966381
 21
229.137817
 31
0.0
  0
LINE
  5
101
100
AcDbEntity
  8
GRIPPER
100
AcDbLine
 10
130.966381
 20
237.637817
 30
0.0
 11
127.411794
 21
237.637817
 31
0.0
  0
LINE
  5
102
100
AcDbEntity
  8
GRIPPER
100
AcDbLine
 10
127.411794
 20
229.137817
 30
0.0
 11
127.911794
 21
228.637817
 31
0.0
  0
LINE
  5
103
100
AcDbEntity
  8
GRIPPER
100
AcDbLine
 10
145.966168
 20
238.137817
 30
0.0
 11
136.966168
 21
238.137817
 31
0.0
  0
CIRCLE
  5
104
100
AcDbEntity
  8
GRIPPER
100
AcDbCircle
 10
141.466168
 20
238.137817
 30
0.0
 40
2.35
  0
LINE
  5
105
100
AcDbEntity
  8
GRIPPER
100
AcDbLine
 10
170.966168
 20
238.137817
 30
0.0
 11
161.966168
 21
238.137817
 31
0.0
  0
CIRCLE
  5
106
100
AcDbEntity
  8
GRIPPER
100
AcDbCircle
 10
166.466168
 20
238.137817
 30
0.0
 40
2.35
  0
LINE
  5
107
100
AcDbEntity
  8
GRIPPER
100
AcDbLine
 10
158.466168
 20
238.137817
 30
0.0
 11
149.466168
 21
238.137817
 31
0.0
  0
CIRCLE
  5
108
100
AcDbEntity
  8
GRIPPER
100
AcDbCircle
 10
153.966168
 20
238.137817
 30
0.0
 40
2.35
  0
CIRCLE
  5
109
100
AcDbEntity
  8
GRIPPER
100
AcDbCircle
 10
178.966168
 20
238.137817
 30
0.0
 40
2.35
  0
LINE
  5
10A
100
AcDbEntity
  8
GRIPPER
100
AcDbLine
 10
183.466168
 20
238.137817
 30
0.0
 11
174.466168
 21
238.137817
 31
0.0
  0
LINE
  5
10B
100
AcDbEntity
  8
GRIPPER
100
AcDbLine
 10
182.701
 20
269.887817
 30
0.0
 11
130.966381
 21
269.887817
 31
0.0
  0
LINE
  5
10C
100
AcDbEntity
  8
GRIPPER
100
AcDbLine
 10
182.701
 20
260.387817
 30
0.0
 11
130.966381
 21
260.387817
 31
0.0
  0
LINE
  5
10D
100
AcDbEntity
  8
GRIPPER
100
AcDbLine
 10
130.966381
 20
245.437817
 30
0.0
 11
127.411794
 21
245.437817
 31
0.0
  0
LINE
  5
10E
100
AcDbEntity
  8
GRIPPER
100
AcDbLine
 10
130.966381
 20
292.637817
 30
0.0
 11
127.411794
 21
292.637817
 31
0.0
  0
LINE
  5
10F
100
AcDbEntity
  8
GRIPPER
100
AcDbLine
 10
130.966381
 20
284.837817
 30
0.0
 11
127.411794
 21
284.837817
 31
0.0
  0
LINE
  5
110
100
AcDbEntity
  8
GRIPPER
100
AcDbLine
 10
145.966168
 20
292.137817
 30
0.0
 11
136.966168
 21
292.137817
 31
0.0
  0
LINE
  5
111
100
AcDbEntity
  8
GRIPPER
100
AcDbLine
 10
181.328326
 20
260.387817
 30
0.0
 11
181.328326
 21
269.887817
 31
0.0
  0
LINE
  5
112
100
AcDbEntity
  8
GRIPPER
100
AcDbLine
 10
183.696202
 20
252.437817
 30
0.0
 11
183.696202
 21
257.137817
 31
0.0
  0
LINE
  5
113
100
AcDbEntity
  8
GRIPPER
100
AcDbLine
 10
183.696202
 20
257.137817
 30
0.0
 11
182.701
 21
257.137817
 31
0.0
  0
LINE
  5
114
100
AcDbEntity
  8
GRIPPER
100
AcDbLine
 10
182.701
 20
257.137817
 30
0.0
 11
182.701
 21
260.387817
 31
0.0
  0
LINE
  5
115
100
AcDbEntity
  8
GRIPPER
100
AcDbLine
 10
170.966168
 20
292.137817
 30
0.0
 11
161.966168
 21
292.137817
 31
0.0
  0
LINE
  5
116
100
AcDbEntity
  8
GRIPPER
100
AcDbLine
 10
158.466168
 20
292.137817
 30
0.0
 11
149.466168
 21
292.137817
 31
0.0
  0
LINE
  5
117
100
AcDbEntity
  8
GRIPPER
100
AcDbLine
 10
183.696202
 20
273.137817
 30
0.0
 11
183.696202
 21
277.837817
 31
0.0
  0
LINE
  5
118
100
AcDbEntity
  8
GRIPPER
100
AcDbLine
 10
182.701
 20
269.887817
 30
0.0
 11
182.701
 21
273.137817
 31
0.0
  0
LINE
  5
119
100
AcDbEntity
  8
GRIPPER
100
AcDbLine
 10
183.696202
 20
273.137817
 30
0.0
 11
182.701
 21
273.137817
 31
0.0
  0
LINE
  5
11A
100
AcDbEntity
  8
GRIPPER
100
AcDbLine
 10
183.466168
 20
292.137817
 30
0.0
 11
174.466168
 21
292.137817
 31
0.0
  0
LINE
  5
11C
100
AcDbEntity
  8
GRIPPER
100
AcDbLine
 10
235.122588
 20
260.387817
 30
0.0
 11
286.857207
 21
260.387817
 31
0.0
  0
LINE
  5
11D
100
AcDbEntity
  8
GRIPPER
100
AcDbLine
 10
235.122588
 20
269.887817
 30
0.0
 11
286.857207
 21
269.887817
 31
0.0
  0
LINE
  5
11E
100
AcDbEntity
  8
GRIPPER
100
AcDbLine
 10
266.593345
 20
229.137817
 30
0.0
 11
286.857207
 21
229.137817
 31
0.0
  0
LINE
  5
11F
100
AcDbEntity
  8
GRIPPER
100
AcDbLine
 10
246.647719
 20
228.637817
 30
0.0
 11
289.911794
 21
228.637817
 31
0.0
  0
LINE
  5
120
100
AcDbEntity
  8
GRIPPER
100
AcDbLine
 10
188.966168
 20
229.137817
 30
0.0
 11
188.966168
 21
252.437817
 31
0.0
  0
LINE
  5
121
100
AcDbEntity
  8
GRIPPER
100
AcDbLine
 10
188.966168
 20
229.137817
 30
0.0
 11
188.966168
 21
252.437817
 31
0.0
  0
ARC
  5
122
100
AcDbEntity
  8
GRIPPER
100
AcDbCircle
 10
251.357421
 20
238.137817
 30
0.0
 40
3.0
100
AcDbArc
 50
70.020411
 51
13.498219
  0
LINE
  5
123
100
AcDbEntity
  8
GRIPPER
100
AcDbLine
 10
251.357421
 20
233.637817
 30
0.0
 11
251.357421
 21
242.637817
 31
0.0
  0
ARC
  5
124
100
AcDbEntity
  8
GRIPPER
100
AcDbCircle
 10
238.857421
 20
238.137817
 30
0.0
 40
3.0
100
AcDbArc
 50
70.020411
 51
13.498219
  0
LINE
  5
125
100
AcDbEntity
  8
GRIPPER
100
AcDbLine
 10
238.857421
 20
233.637817
 30
0.0
 11
238.857421
 21
242.637817
 31
0.0
  0
ARC
  5
126
100
AcDbEntity
  8
GRIPPER
100
AcDbCircle
 10
263.857421
 20
238.137817
 30
0.0
 40
3.0
100
AcDbArc
 50
70.020411
 51
13.498219
  0
LINE
  5
127
100
AcDbEntity
  8
GRIPPER
100
AcDbLine
 10
263.857421
 20
233.637817
 30
0.0
 11
263.857421
 21
242.637817
 31
0.0
  0
CIRCLE
  5
128
100
AcDbEntity
  8
GRIPPER
100
AcDbCircle
 10
238.857421
 20
238.137817
 30
0.0
 40
4.25
  0
CIRCLE
  5
129
100
AcDbEntity
  8
GRIPPER
100
AcDbCircle
 10
251.357421
 20
238.137817
 30
0.0
 40
4.25
  0
CIRCLE
  5
12A
100
AcDbEntity
  8
GRIPPER
100
AcDbCircle
 10
263.857421
 20
238.137817
 30
0.0
 40
4.25
  0
LINE
  5
12B
100
AcDbEntity
  8
GRIPPER
100
AcDbLine
 10
228.857421
 20
229.137817
 30
0.0
 11
228.857421
 21
252.437817
 31
0.0
  0
LINE
  5
12C
100
AcDbEntity
  8
GRIPPER
100
AcDbLine
 10
228.857421
 20
229.137817
 30
0.0
 11
266.593345
 21
229.137817
 31
0.0
  0
ARC
  5
12D
100
AcDbEntity
  8
GRIPPER
100
AcDbCircle
 10
231.136794
 20
226.642988
 30
0.0
 40
3.25
100
AcDbArc
 50
142.135687
 51
37.864313
  0
CIRCLE
  5
12E
100
AcDbEntity
  8
GRIPPER
100
AcDbCircle
 10
208.911794
 20
220.687817
 30
0.0
 40
4.0
  0
LINE
  5
12F
100
AcDbEntity
  8
GRIPPER
100
AcDbLine
 10
228.857421
 20
237.637817
 30
0.0
 11
188.966168
 21
237.637817
 31
0.0
  0
CIRCLE
  5
130
100
AcDbEntity
  8
GRIPPER
100
AcDbCircle
 10
251.357421
 20
238.137817
 30
0.0
 40
2.35
  0
LINE
  5
131
100
AcDbEntity
  8
GRIPPER
100
AcDbLine
 10
246.857421
 20
238.137817
 30
0.0
 11
255.857421
 21
238.137817
 31
0.0
  0
CIRCLE
  5
132
100
AcDbEntity
  8
GRIPPER
100
AcDbCircle
 10
238.857421
 20
238.137817
 30
0.0
 40
2.35
  0
LINE
  5
133
100
AcDbEntity
  8
GRIPPER
100
AcDbLine
 10
234.357421
 20
238.137817
 30
0.0
 11
243.357421
 21
238.137817
 31
0.0
  0
LINE
  5
134
100
AcDbEntity
  8
GRIPPER
100
AcDbLine
 10
259.357421
 20
238.137817
 30
0.0
 11
268.357421
 21
238.137817
 31
0.0
  0
CIRCLE
  5
135
100
AcDbEntity
  8
GRIPPER
100
AcDbCircle
 10
263.857421
 20
238.137817
 30
0.0
 40
2.35
  0
LINE
  5
136
100
AcDbEntity
  8
GRIPPER
  6
CENTRE
100
AcDbLine
 10
235.857421
 20
265.137817
 30
0.0
 11
221.857421
 21
265.137817
 31
0.0
  0
LINE
  5
138
100
AcDbEntity
  8
GRIPPER
  6
CENTRE
100
AcDbLine
 10
221.857421
 20
265.137817
 30
0.0
 11
235.857421
 21
265.137817
 31
0.0
  0
LINE
  5
139
100
AcDbEntity
  8
GRIPPER
100
AcDbLine
 10
234.127386
 20
252.437817
 30
0.0
 11
228.857421
 21
252.437817
 31
0.0
  0
LINE
  5
13A
100
AcDbEntity
  8
GRIPPER
100
AcDbLine
 10
234.127386
 20
277.837817
 30
0.0
 11
228.857421
 21
277.837817
 31
0.0
  0
LINE
  5
13B
100
AcDbEntity
  8
GRIPPER
100
AcDbLine
 10
228.857421
 20
245.437817
 30
0.0
 11
188.966168
 21
245.437817
 31
0.0
  0
LINE
  5
13C
100
AcDbEntity
  8
GRIPPER
100
AcDbLine
 10
228.857421
 20
284.837817
 30
0.0
 11
188.966168
 21
284.837817
 31
0.0
  0
LINE
  5
13D
100
AcDbEntity
  8
GRIPPER
100
AcDbLine
 10
228.857421
 20
292.637817
 30
0.0
 11
188.966168
 21
292.637817
 31
0.0
  0
LINE
  5
13E
100
AcDbEntity
  8
GRIPPER
100
AcDbLine
 10
236.495262
 20
260.387817
 30
0.0
 11
236.495262
 21
269.887817
 31
0.0
  0
LINE
  5
13F
100
AcDbEntity
  8
GRIPPER
100
AcDbLine
 10
234.127386
 20
252.437817
 30
0.0
 11
234.127386
 21
257.137817
 31
0.0
  0
LINE
  5
140
100
AcDbEntity
  8
GRIPPER
100
AcDbLine
 10
234.127386
 20
257.137817
 30
0.0
 11
235.122588
 21
257.137817
 31
0.0
  0
LINE
  5
141
100
AcDbEntity
  8
GRIPPER
100
AcDbLine
 10
235.122588
 20
257.137817
 30
0.0
 11
235.122588
 21
260.387817
 31
0.0
  0
LINE
  5
142
100
AcDbEntity
  8
GRIPPER
100
AcDbLine
 10
246.857421
 20
292.137817
 30
0.0
 11
255.857421
 21
292.137817
 31
0.0
  0
LINE
  5
143
100
AcDbEntity
  8
GRIPPER
100
AcDbLine
 10
235.122588
 20
269.887817
 30
0.0
 11
235.122588
 21
273.137817
 31
0.0
  0
LINE
  5
144
100
AcDbEntity
  8
GRIPPER
100
AcDbLine
 10
234.127386
 20
273.137817
 30
0.0
 11
234.127386
 21
277.837817
 31
0.0
  0
LINE
  5
145
100
AcDbEntity
  8
GRIPPER
100
AcDbLine
 10
234.127386
 20
273.137817
 30
0.0
 11
235.122588
 21
273.137817
 31
0.0
  0
LINE
  5
146
100
AcDbEntity
  8
GRIPPER
100
AcDbLine
 10
234.357421
 20
292.137817
 30
0.0
 11
243.357421
 21
292.137817
 31
0.0
  0
LINE
  5
147
100
AcDbEntity
  8
GRIPPER
100
AcDbLine
 10
259.357421
 20
292.137817
 30
0.0
 11
268.357421
 21
292.137817
 31
0.0
  0
ARC
  5
148
100
AcDbEntity
  8
GRIPPER
100
AcDbCircle
 10
276.357421
 20
238.137817
 30
0.0
 40
3.0
100
AcDbArc
 50
70.020411
 51
13.498219
  0
LINE
  5
149
100
AcDbEntity
  8
GRIPPER
100
AcDbLine
 10
276.357421
 20
233.637817
 30
0.0
 11
276.357421
 21
242.637817
 31
0.0
  0
CIRCLE
  5
14A
100
AcDbEntity
  8
GRIPPER
100
AcDbCircle
 10
276.357421
 20
238.137817
 30
0.0
 40
4.25
  0
LINE
  5
14B
100
AcDbEntity
  8
GRIPPER
100
AcDbLine
 10
271.857421
 20
238.137817
 30
0.0
 11
280.857421
 21
238.137817
 31
0.0
  0
CIRCLE
  5
14C
100
AcDbEntity
  8
GRIPPER
100
AcDbCircle
 10
276.357421
 20
238.137817
 30
0.0
 40
2.35
  0
LINE
  5
14E
100
AcDbEntity
  8
GRIPPER
100
AcDbLine
 10
286.857207
 20
237.637817
 30
0.0
 11
290.411794
 21
237.637817
 31
0.0
  0
LINE
  5
14F
100
AcDbEntity
  8
GRIPPER
100
AcDbLine
 10
289.911794
 20
228.637817
 30
0.0
 11
290.411794
 21
229.137817
 31
0.0
  0
LINE
  5
150
100
AcDbEntity
  8
GRIPPER
100
AcDbLine
 10
286.857207
 20
245.437817
 30
0.0
 11
290.411794
 21
245.437817
 31
0.0
  0
LINE
  5
151
100
AcDbEntity
  8
GRIPPER
100
AcDbLine
 10
271.857421
 20
292.137817
 30
0.0
 11
280.857421
 21
292.137817
 31
0.0
  0
LINE
  5
152
100
AcDbEntity
  8
GRIPPER
100
AcDbLine
 10
286.857207
 20
284.837817
 30
0.0
 11
290.411794
 21
284.837817
 31
0.0
  0
LINE
  5
153
100
AcDbEntity
  8
GRIPPER
100
AcDbLine
 10
286.857207
 20
292.637817
 30
0.0
 11
290.411794
 21
292.637817
 31
0.0
  0
LINE
  5
156
100
AcDbEntity
  8
GRIPPER
100
AcDbLine
 10
127.911794
 20
301.637817
 30
0.0
 11
246.647719
 21
301.637817
 31
0.0
  0
ARC
  5
157
100
AcDbEntity
  8
GRIPPER
100
AcDbCircle
 10
208.911794
 20
265.137817
 30
0.0
 40
52.5
100
AcDbArc
 50
107.75279
 51
135.953807
  0
ARC
  5
158
100
AcDbEntity
  8
GRIPPER
100
AcDbCircle
 10
186.686794
 20
303.632647
 30
0.0
 40
3.25
100
AcDbArc
 50
322.135687
 51
217.864313
  0
LINE
  5
159
100
AcDbEntity
  8
GRIPPER
100
AcDbLine
 10
188.966168
 20
301.137817
 30
0.0
 11
151.230243
 21
301.137817
 31
0.0
  0
ARC
  5
15A
100
AcDbEntity
  8
GRIPPER
100
AcDbCircle
 10
233.747331
 20
433.060189
 30
0.0
 40
53.461867
100
AcDbArc
 50
123.935523
 51
152.723619
  0
LINE
  5
15B
100
AcDbEntity
  8
GRIPPER
100
AcDbLine
 10
130.966381
 20
405.060865
 30
0.0
 11
188.966381
 21
405.060865
 31
0.0
  0
LINE
  5
15C
100
AcDbEntity
  8
GRIPPER
  6
CENTRE2
100
AcDbLine
 10
168.398091
 20
432.060865
 30
0.0
 11
188.798091
 21
432.060865
 31
0.0
  0
LINE
  5
15D
100
AcDbEntity
  8
GRIPPER
100
AcDbLine
 10
175.098091
 20
479.540685
 30
0.0
 11
248.098091
 21
479.540685
 31
0.0
  0
LINE
  5
15E
100
AcDbEntity
  8
GRIPPER
  6
CONTINUOUS
100
AcDbLine
 10
130.098091
 20
419.660865
 30
0.0
 11
293.098091
 21
419.660865
 31
0.0
  0
LINE
  5
187
100
AcDbEntity
  8
GRIPPER
100
AcDbLine
 10
151.230243
 20
301.137817
 30
0.0
 11
130.966381
 21
301.137817
 31
0.0
  0
LINE
  5
189
100
AcDbEntity
  8
GRIPPER
100
AcDbLine
 10
127.411794
 20
301.137817
 30
0.0
 11
127.911794
 21
301.637817
 31
0.0
  0
LINE
  5
18B
100
AcDbEntity
  8
GRIPPER
100
AcDbLine
 10
130.098091
 20
457.060865
 30
0.0
 11
130.098091
 21
419.660865
 31
0.0
  0
LINE
  5
18C
100
AcDbEntity
  8
GRIPPER
  6
CENTRE2
100
AcDbLine
 10
178.598091
 20
421.860865
 30
0.0
 11
178.598091
 21
442.260865
 31
0.0
  0
LINE
  5
18D
100
AcDbEntity
  8
GRIPPER
  6
CENTRE2
100
AcDbLine
 10
145.598091
 20
421.860865
 30
0.0
 11
145.598091
 21
442.260865
 31
0.0
  0
CIRCLE
  5
18E
100
AcDbEntity
  8
GRIPPER
100
AcDbCircle
 10
145.598091
 20
432.060865
 30
0.0
 40
9.2
  0
CIRCLE
  5
18F
100
AcDbEntity
  8
GRIPPER
100
AcDbCircle
 10
178.598091
 20
432.060865
 30
0.0
 40
9.2
  0
LWPOLYLINE
  5
190
100
AcDbEntity
  8
GRIPPER
100
AcDbPolyline
 90
        6
 70
     1
 43
0.0
 10
144.154715
 20
434.560865
 10
142.71134
 20
432.060865
 10
144.154715
 20
429.560865
 10
147.041467
 20
429.560865
 10
148.484842
 20
432.060865
 10
147.041467
 20
434.560865
  0
LINE
  5
191
100
AcDbEntity
  8
GRIPPER
  6
CENTRE2
100
AcDbLine
 10
135.398091
 20
432.060865
 30
0.0
 11
155.798091
 21
432.060865
 31
0.0
  0
LINE
  5
193
100
AcDbEntity
  8
GRIPPER
100
AcDbLine
 10
130.966381
 20
419.660865
 30
0.0
 11
130.966381
 21
405.060865
 31
0.0
  0
LINE
  5
195
100
AcDbEntity
  8
GRIPPER
  6
CENTRE2
100
AcDbLine
 10
157.406969
 20
432.060865
 30
0.0
 11
170.289212
 21
432.060865
 31
0.0
  0
LINE
  5
196
100
AcDbEntity
  8
GRIPPER
  6
CENTRE2
100
AcDbLine
 10
164.098091
 20
425.619744
 30
0.0
 11
164.098091
 21
438.501987
 31
0.0
  0
LWPOLYLINE
  5
197
100
AcDbEntity
  8
GRIPPER
100
AcDbPolyline
 90
        6
 70
     1
 43
0.0
 10
162.348091
 20
435.091954
 10
160.598091
 20
432.060865
 10
162.348091
 20
429.029776
 10
165.848091
 20
429.029776
 10
167.598091
 20
432.060865
 10
165.848091
 20
435.091954
  0
LWPOLYLINE
  5
198
100
AcDbEntity
  8
GRIPPER
100
AcDbPolyline
 90
        6
 70
     1
 43
0.0
 10
177.154715
 20
434.560865
 10
175.71134
 20
432.060865
 10
177.154715
 20
429.560865
 10
180.041467
 20
429.560865
 10
181.484842
 20
432.060865
 10
180.041467
 20
434.560865
  0
ARC
  5
19A
100
AcDbEntity
  8
GRIPPER
100
AcDbCircle
 10
145.613818
 20
459.88783
 30
0.0
 40
2.633212
100
AcDbArc
 50
19.362752
 51
85.355867
  0
LINE
  5
19B
100
AcDbEntity
  8
GRIPPER
100
AcDbLine
 10
130.598091
 20
457.560865
 30
0.0
 11
167.098091
 21
457.560865
 31
0.0
  0
LINE
  5
19C
100
AcDbEntity
  8
GRIPPER
100
AcDbLine
 10
164.598091
 20
457.560865
 30
0.0
 11
140.098091
 21
457.560865
 31
0.0
  0
LINE
  5
19D
100
AcDbEntity
  8
GRIPPER
100
AcDbLine
 10
165.098091
 20
460.760865
 30
0.0
 11
140.098091
 21
460.760865
 31
0.0
  0
LINE
  5
19E
100
AcDbEntity
  8
GRIPPER
  6
CENTRE2
100
AcDbLine
 10
144.348091
 20
464.115619
 30
0.0
 11
144.348091
 21
451.227954
 31
0.0
  0
LINE
  5
1A1
100
AcDbEntity
  8
GRIPPER
100
AcDbLine
 10
130.598091
 20
457.560865
 30
0.0
 11
130.098091
 21
457.060865
 31
0.0
  0
ARC
  5
1A3
100
AcDbEntity
  8
GRIPPER
100
AcDbCircle
 10
143.082364
 20
459.88783
 30
0.0
 40
2.633212
100
AcDbArc
 50
94.644133
 51
160.637248
  0
LINE
  5
1A7
100
AcDbEntity
  8
GRIPPER
  6
CONTINUOUS
100
AcDbLine
 10
140.098091
 20
457.560865
 30
0.0
 11
140.098091
 21
460.760865
 31
0.0
  0
LINE
  5
1A8
100
AcDbEntity
  8
GRIPPER
100
AcDbLine
 10
144.348091
 20
462.512396
 30
0.0
 11
145.82702
 21
462.512396
 31
0.0
  0
LINE
  5
1A9
100
AcDbEntity
  8
GRIPPER
100
AcDbLine
 10
144.348091
 20
462.512396
 30
0.0
 11
142.869161
 21
462.512396
 31
0.0
  0
LINE
  5
1AB
100
AcDbEntity
  8
GRIPPER
100
AcDbLine
 10
167.098091
 20
457.560865
 30
0.0
 11
175.098091
 21
479.540685
 31
0.0
  0
LINE
  5
1AC
100
AcDbEntity
  8
GRIPPER
100
AcDbLine
 10
186.230091
 20
457.560865
 30
0.0
 11
167.098091
 21
457.560865
 31
0.0
  0
LINE
  5
1B0
100
AcDbEntity
  8
GRIPPER
  6
CONTINUOUS
100
AcDbLine
 10
165.098091
 20
457.560865
 30
0.0
 11
165.098091
 21
460.760865
 31
0.0
  0
DIMENSION
  5
1B1
100
AcDbEntity
  8
DIMENSION
100
AcDbDimension
  2
*D12
 10
234.2298
 20
383.047321
 30
0.0
 11
211.598091
 21
388.297321
 31
0.0
 12
-495.331114
 22
236.552842
 32
0.0
 70
    32
  1
45 STROKE
  3
BRIAN
100
AcDbAlignedDimension
 13
188.966381
 23
405.060865
 33
0.0
 14
234.2298
 24
405.060865
 34
0.0
100
AcDbRotatedDimension
  0
LINE
  5
1BF
100
AcDbEntity
  8
GRIPPER
100
AcDbLine
 10
266.593345
 20
301.137817
 30
0.0
 11
286.857207
 21
301.137817
 31
0.0
  0
LINE
  5
1C0
100
AcDbEntity
  8
GRIPPER
100
AcDbLine
 10
246.647719
 20
301.637817
 30
0.0
 11
289.911794
 21
301.637817
 31
0.0
  0
ARC
  5
1C3
100
AcDbEntity
  8
GRIPPER
100
AcDbCircle
 10
231.136794
 20
303.632647
 30
0.0
 40
3.25
100
AcDbArc
 50
322.135687
 51
217.864313
  0
ARC
  5
1C4
100
AcDbEntity
  8
GRIPPER
100
AcDbCircle
 10
208.911794
 20
265.137817
 30
0.0
 40
52.5
100
AcDbArc
 50
44.046193
 51
72.24721
  0
LINE
  5
1C5
100
AcDbEntity
  8
GRIPPER
100
AcDbLine
 10
228.857421
 20
301.137817
 30
0.0
 11
266.593345
 21
301.137817
 31
0.0
  0
LINE
  5
1C8
100
AcDbEntity
  8
GRIPPER
  6
CENTRE2
100
AcDbLine
 10
208.911794
 20
303.535873
 30
0.0
 11
208.911794
 21
336.281841
 31
0.0
  0
LINE
  5
1C9
100
AcDbEntity
  8
GRIPPER
100
AcDbLine
 10
202.911794
 20
318.658669
 30
0.0
 11
202.911794
 21
325.658669
 31
0.0
  0
LINE
  5
1CA
100
AcDbEntity
  8
GRIPPER
100
AcDbLine
 10
214.911794
 20
318.658669
 30
0.0
 11
214.911794
 21
325.658669
 31
0.0
  0
LINE
  5
1CB
100
AcDbEntity
  8
GRIPPER
100
AcDbLine
 10
214.411794
 20
312.498902
 30
0.0
 11
214.411794
 21
321.637817
 31
0.0
  0
LINE
  5
1CC
100
AcDbEntity
  8
GRIPPER
100
AcDbLine
 10
203.411794
 20
312.498902
 30
0.0
 11
203.411794
 21
321.637817
 31
0.0
  0
LINE
  5
1CD
100
AcDbEntity
  8
GRIPPER
100
AcDbLine
 10
202.511794
 20
305.137817
 30
0.0
 11
215.311794
 21
305.137817
 31
0.0
  0
LINE
  5
1CE
100
AcDbEntity
  8
GRIPPER
100
AcDbLine
 10
202.511794
 20
303.637817
 30
0.0
 11
215.311794
 21
303.637817
 31
0.0
  0
LINE
  5
1CF
100
AcDbEntity
  8
GRIPPER
100
AcDbLine
 10
203.411794
 20
319.637817
 30
0.0
 11
214.411794
 21
319.637817
 31
0.0
  0
LINE
  5
1D0
100
AcDbEntity
  8
GRIPPER
100
AcDbLine
 10
208.911794
 20
312.137817
 30
0.0
 11
209.411794
 21
312.137817
 31
0.0
  0
LINE
  5
1D1
100
AcDbEntity
  8
GRIPPER
100
AcDbLine
 10
208.411794
 20
305.137817
 30
0.0
 11
208.411794
 21
312.137817
 31
0.0
  0
LINE
  5
1D2
100
AcDbEntity
  8
GRIPPER
100
AcDbLine
 10
202.911794
 20
305.137817
 30
0.0
 11
202.911794
 21
312.137817
 31
0.0
  0
LINE
  5
1D3
100
AcDbEntity
  8
GRIPPER
100
AcDbLine
 10
202.511794
 20
301.637817
 30
0.0
 11
202.511794
 21
305.137817
 31
0.0
  0
LINE
  5
1D5
100
AcDbEntity
  8
GRIPPER
100
AcDbLine
 10
203.411794
 20
315.137817
 30
0.0
 11
192.903984
 21
315.137817
 31
0.0
  0
LINE
  5
1D8
100
AcDbEntity
  8
GRIPPER
100
AcDbLine
 10
202.511794
 20
315.158669
 30
0.0
 11
202.511794
 21
318.658669
 31
0.0
  0
LINE
  5
1D9
100
AcDbEntity
  8
GRIPPER
100
AcDbLine
 10
202.511794
 20
317.158669
 30
0.0
 11
203.411794
 21
317.158669
 31
0.0
  0
LINE
  5
1DA
100
AcDbEntity
  8
GRIPPER
100
AcDbLine
 10
202.511794
 20
318.658669
 30
0.0
 11
203.411794
 21
318.658669
 31
0.0
  0
LINE
  5
1DB
100
AcDbEntity
  8
GRIPPER
100
AcDbLine
 10
208.411794
 20
312.137817
 30
0.0
 11
208.911794
 21
312.137817
 31
0.0
  0
ARC
  5
1DC
100
AcDbEntity
  8
GRIPPER
100
AcDbCircle
 10
205.661794
 20
308.856567
 30
0.0
 40
4.28125
100
AcDbArc
 50
50.033787
 51
129.966213
  0
LINE
  5
1DD
100
AcDbEntity
  8
GRIPPER
100
AcDbLine
 10
209.411794
 20
305.137817
 30
0.0
 11
209.411794
 21
312.137817
 31
0.0
  0
LINE
  5
1DE
100
AcDbEntity
  8
GRIPPER
100
AcDbLine
 10
214.911794
 20
305.137817
 30
0.0
 11
214.911794
 21
312.137817
 31
0.0
  0
LINE
  5
1DF
100
AcDbEntity
  8
GRIPPER
100
AcDbLine
 10
215.311794
 20
301.637817
 30
0.0
 11
215.311794
 21
305.137817
 31
0.0
  0
LINE
  5
1E1
100
AcDbEntity
  8
GRIPPER
100
AcDbLine
 10
224.919605
 20
315.137817
 30
0.0
 11
214.411794
 21
315.137817
 31
0.0
  0
LINE
  5
1E4
100
AcDbEntity
  8
GRIPPER
100
AcDbLine
 10
215.311794
 20
315.158669
 30
0.0
 11
215.311794
 21
318.658669
 31
0.0
  0
ARC
  5
1E5
100
AcDbEntity
  8
GRIPPER
100
AcDbCircle
 10
212.161794
 20
308.856567
 30
0.0
 40
4.28125
100
AcDbArc
 50
50.033787
 51
129.966213
  0
LINE
  5
1E6
100
AcDbEntity
  8
GRIPPER
100
AcDbLine
 10
214.411794
 20
317.158669
 30
0.0
 11
215.311794
 21
317.158669
 31
0.0
  0
LINE
  5
1E7
100
AcDbEntity
  8
GRIPPER
100
AcDbLine
 10
214.411794
 20
318.658669
 30
0.0
 11
215.311794
 21
318.658669
 31
0.0
  0
LINE
  5
1E9
100
AcDbEntity
  8
GRIPPER
100
AcDbLine
 10
208.911794
 20
325.658669
 30
0.0
 11
209.411794
 21
325.658669
 31
0.0
  0
LINE
  5
1EA
100
AcDbEntity
  8
GRIPPER
100
AcDbLine
 10
203.411794
 20
333.158669
 30
0.0
 11
214.411794
 21
333.158669
 31
0.0
  0
LINE
  5
1EB
100
AcDbEntity
  8
GRIPPER
100
AcDbLine
 10
203.411794
 20
335.158669
 30
0.0
 11
214.411794
 21
335.158669
 31
0.0
  0
LINE
  5
1EC
100
AcDbEntity
  8
GRIPPER
100
AcDbLine
 10
203.411794
 20
321.637817
 30
0.0
 11
214.411794
 21
321.637817
 31
0.0
  0
LINE
  5
1EE
100
AcDbEntity
  8
GRIPPER
100
AcDbLine
 10
203.411794
 20
326.019753
 30
0.0
 11
203.411794
 21
335.158669
 31
0.0
  0
ARC
  5
1F0
100
AcDbEntity
  8
GRIPPER
100
AcDbCircle
 10
205.661794
 20
322.377419
 30
0.0
 40
4.28125
100
AcDbArc
 50
50.033787
 51
129.966213
  0
LINE
  5
1F1
100
AcDbEntity
  8
GRIPPER
100
AcDbLine
 10
208.411794
 20
325.658669
 30
0.0
 11
208.911794
 21
325.658669
 31
0.0
  0
LINE
  5
1F2
100
AcDbEntity
  8
GRIPPER
100
AcDbLine
 10
208.411794
 20
321.637817
 30
0.0
 11
208.411794
 21
325.658669
 31
0.0
  0
LINE
  5
1F4
100
AcDbEntity
  8
GRIPPER
100
AcDbLine
 10
214.411794
 20
326.019753
 30
0.0
 11
214.411794
 21
335.158669
 31
0.0
  0
ARC
  5
1F6
100
AcDbEntity
  8
GRIPPER
100
AcDbCircle
 10
212.161794
 20
322.377419
 30
0.0
 40
4.28125
100
AcDbArc
 50
50.033787
 51
129.966213
  0
LINE
  5
1F7
100
AcDbEntity
  8
GRIPPER
100
AcDbLine
 10
209.411794
 20
321.637817
 30
0.0
 11
209.411794
 21
325.658669
 31
0.0
  0
SOLID
  5
1F8
100
AcDbEntity
  8
DIMENSION
100
AcDbTrace
 10
242.828651
 20
297.343967
 30
0.0
 11
241.80296
 21
297.899906
 31
0.0
 12
240.64799
 22
294.544862
 32
0.0
 13
240.64799
 23
294.544862
 33
0.0
  0
TEXT
  5
1F9
100
AcDbEntity
  8
DIM_GRIP
100
AcDbText
 10
196.485436
 20
378.908528
 30
0.0
 40
4.5
  1
=    =
  7
ROMANS
100
AcDbText
  0
LINE
  5
1FC
100
AcDbEntity
  8
GRIPPER
100
AcDbLine
 10
289.911794
 20
301.637817
 30
0.0
 11
290.411794
 21
301.137817
 31
0.0
  0
LINE
  5
200
100
AcDbEntity
  8
GRIPPER
100
AcDbLine
 10
234.2298
 20
405.060865
 30
0.0
 11
292.2298
 21
405.060865
 31
0.0
  0
LINE
  5
201
100
AcDbEntity
  8
GRIPPER
  6
CENTRE2
100
AcDbLine
 10
267.398091
 20
432.060865
 30
0.0
 11
287.798091
 21
432.060865
 31
0.0
  0
LINE
  5
202
100
AcDbEntity
  8
GRIPPER
100
AcDbLine
 10
292.598091
 20
457.560865
 30
0.0
 11
256.098091
 21
457.560865
 31
0.0
  0
LINE
  5
203
100
AcDbEntity
  8
GRIPPER
100
AcDbLine
 10
256.098091
 20
457.560865
 30
0.0
 11
292.598091
 21
457.560865
 31
0.0
  0
CIRCLE
  5
204
100
AcDbEntity
  8
GRIPPER
100
AcDbCircle
 10
277.598091
 20
432.060865
 30
0.0
 40
9.2
  0
LINE
  5
205
100
AcDbEntity
  8
GRIPPER
  6
CENTRE2
100
AcDbLine
 10
244.598091
 20
421.860865
 30
0.0
 11
244.598091
 21
442.260865
 31
0.0
  0
CIRCLE
  5
206
100
AcDbEntity
  8
GRIPPER
100
AcDbCircle
 10
211.598091
 20
432.060865
 30
0.0
 40
9.2
  0
CIRCLE
  5
207
100
AcDbEntity
  8
GRIPPER
100
AcDbCircle
 10
244.598091
 20
432.060865
 30
0.0
 40
9.2
  0
LINE
  5
209
100
AcDbEntity
  8
GRIPPER
100
AcDbLine
 10
188.966381
 20
405.925865
 30
0.0
 11
234.2298
 21
405.925865
 31
0.0
  0
LINE
  5
20A
100
AcDbEntity
  8
GRIPPER
100
AcDbLine
 10
188.966381
 20
405.925865
 30
0.0
 11
234.2298
 21
405.925865
 31
0.0
  0
LINE
  5
20B
100
AcDbEntity
  8
GRIPPER
100
AcDbLine
 10
188.966381
 20
405.925865
 30
0.0
 11
234.2298
 21
405.925865
 31
0.0
  0
LINE
  5
20C
100
AcDbEntity
  8
GRIPPER
100
AcDbLine
 10
188.966381
 20
419.660865
 30
0.0
 11
188.966381
 21
405.060865
 31
0.0
  0
LWPOLYLINE
  5
20E
100
AcDbEntity
  8
GRIPPER
100
AcDbPolyline
 90
        6
 70
     1
 43
0.0
 10
210.154715
 20
434.560865
 10
208.71134
 20
432.060865
 10
210.154715
 20
429.560865
 10
213.041467
 20
429.560865
 10
214.484842
 20
432.060865
 10
213.041467
 20
434.560865
  0
LINE
  5
20F
100
AcDbEntity
  8
GRIPPER
  6
CENTRE2
100
AcDbLine
 10
201.398091
 20
432.060865
 30
0.0
 11
221.798091
 21
432.060865
 31
0.0
  0
LINE
  5
210
100
AcDbEntity
  8
GRIPPER
100
AcDbLine
 10
211.598091
 20
425.619744
 30
0.0
 11
211.598091
 21
438.501987
 31
0.0
  0
LINE
  5
211
100
AcDbEntity
  8
GRIPPER
100
AcDbLine
 10
234.2298
 20
419.660865
 30
0.0
 11
234.2298
 21
405.060865
 31
0.0
  0
LINE
  5
213
100
AcDbEntity
  8
GRIPPER
  6
CENTRE2
100
AcDbLine
 10
234.398091
 20
432.060865
 30
0.0
 11
254.798091
 21
432.060865
 31
0.0
  0
LWPOLYLINE
  5
214
100
AcDbEntity
  8
GRIPPER
100
AcDbPolyline
 90
        6
 70
     1
 43
0.0
 10
243.154715
 20
434.560865
 10
241.71134
 20
432.060865
 10
243.154715
 20
429.560865
 10
246.041467
 20
429.560865
 10
247.484842
 20
432.060865
 10
246.041467
 20
434.560865
  0
LINE
  5
215
100
AcDbEntity
  8
GRIPPER
  6
CENTRE2
100
AcDbLine
 10
259.098091
 20
425.619744
 30
0.0
 11
259.098091
 21
438.501987
 31
0.0
  0
LWPOLYLINE
  5
216
100
AcDbEntity
  8
GRIPPER
100
AcDbPolyline
 90
        6
 70
     1
 43
0.0
 10
260.848091
 20
435.091954
 10
262.598091
 20
432.060865
 10
260.848091
 20
429.029776
 10
257.348091
 20
429.029776
 10
255.598091
 20
432.060865
 10
257.348091
 20
435.091954
  0
LINE
  5
217
100
AcDbEntity
  8
GRIPPER
  6
CENTRE2
100
AcDbLine
 10
265.789212
 20
432.060865
 30
0.0
 11
252.906969
 21
432.060865
 31
0.0
  0
ARC
  5
218
100
AcDbEntity
  8
GRIPPER
100
AcDbCircle
 10
189.44885
 20
433.060189
 30
0.0
 40
53.461867
100
AcDbArc
 50
27.276381
 51
56.064477
  0
CIRCLE
  5
219
100
AcDbEntity
  8
GRIPPER
100
AcDbCircle
 10
211.544622
 20
460.060865
 30
0.0
 40
6.4
  0
LWPOLYLINE
  5
21A
100
AcDbEntity
  8
GRIPPER
100
AcDbPolyline
 90
        6
 70
     1
 43
0.0
 10
217.544622
 20
460.060865
 10
214.544622
 20
465.257018
 10
208.544622
 20
465.257018
 10
205.544622
 20
460.060865
 10
208.544622
 20
454.864713
 10
214.544622
 20
454.864713
  0
CIRCLE
  5
21B
100
AcDbEntity
  8
GRIPPER
100
AcDbCircle
 10
211.544622
 20
460.060865
 30
0.0
 40
3.0
  0
LINE
  5
21C
100
AcDbEntity
  8
GRIPPER
  6
CENTRE2
100
AcDbLine
 10
203.333291
 20
460.060865
 30
0.0
 11
219.755953
 21
460.060865
 31
0.0
  0
ARC
  5
21D
100
AcDbEntity
  8
GRIPPER
100
AcDbCircle
 10
211.598091
 20
464.540685
 30
0.0
 40
15.0
100
AcDbArc
 50
59.130081
 51
120.869919
  0
LINE
  5
21F
100
AcDbEntity
  8
GRIPPER
100
AcDbLine
 10
256.098091
 20
457.560865
 30
0.0
 11
248.098091
 21
479.540685
 31
0.0
  0
LINE
  5
220
100
AcDbEntity
  8
GRIPPER
100
AcDbLine
 10
256.098091
 20
457.560865
 30
0.0
 11
236.966091
 21
457.560865
 31
0.0
  0
LINE
  5
222
100
AcDbEntity
  8
GRIPPER
  6
CENTRE2
100
AcDbLine
 10
277.598091
 20
421.860865
 30
0.0
 11
277.598091
 21
442.260865
 31
0.0
  0
LINE
  5
223
100
AcDbEntity
  8
GRIPPER
100
AcDbLine
 10
293.098091
 20
457.060865
 30
0.0
 11
293.098091
 21
419.660865
 31
0.0
  0
LINE
  5
225
100
AcDbEntity
  8
GRIPPER
100
AcDbLine
 10
292.2298
 20
419.660865
 30
0.0
 11
292.2298
 21
405.060865
 31
0.0
  0
LWPOLYLINE
  5
226
100
AcDbEntity
  8
GRIPPER
100
AcDbPolyline
 90
        6
 70
     1
 43
0.0
 10
276.154715
 20
434.560865
 10
274.71134
 20
432.060865
 10
276.154715
 20
429.560865
 10
279.041467
 20
429.560865
 10
280.484842
 20
432.060865
 10
279.041467
 20
434.560865
  0
LINE
  5
229
100
AcDbEntity
  8
GRIPPER
100
AcDbLine
 10
293.098091
 20
457.060865
 30
0.0
 11
293.098091
 21
452.874865
 31
0.0
  0
LINE
  5
22A
100
AcDbEntity
  8
GRIPPER
100
AcDbLine
 10
292.598091
 20
457.560865
 30
0.0
 11
293.098091
 21
457.060865
 31
0.0
  0
CIRCLE
  5
250
100
AcDbEntity
  8
GRIPPER
100
AcDbCircle
 10
432.685823
 20
427.246865
 30
0.0
 40
12.7
  0
LINE
  5
251
100
AcDbEntity
  8
GRIPPER
100
AcDbLine
 10
427.935823
 20
405.060865
 30
0.0
 11
396.685823
 21
405.060865
 31
0.0
  0
LINE
  5
252
100
AcDbEntity
  8
GRIPPER
100
AcDbLine
 10
408.185823
 20
453.060865
 30
0.0
 11
432.685823
 21
453.060865
 31
0.0
  0
LINE
  5
253
100
AcDbEntity
  8
GRIPPER
100
AcDbLine
 10
408.385823
 20
452.560865
 30
0.0
 11
432.685823
 21
452.560865
 31
0.0
  0
LINE
  5
254
100
AcDbEntity
  8
GRIPPER
100
AcDbLine
 10
396.685823
 20
457.560865
 30
0.0
 11
432.685823
 21
457.560865
 31
0.0
  0
LINE
  5
255
100
AcDbEntity
  8
GRIPPER
100
AcDbLine
 10
396.685823
 20
460.760865
 30
0.0
 11
432.685823
 21
460.760865
 31
0.0
  0
LINE
  5
256
100
AcDbEntity
  8
GRIPPER
  6
CENTRE2
100
AcDbLine
 10
416.824995
 20
427.246865
 30
0.0
 11
432.685823
 21
427.246865
 31
0.0
  0
LINE
  5
258
100
AcDbEntity
  8
GRIPPER
100
AcDbLine
 10
405.185823
 20
450.060865
 30
0.0
 11
405.185823
 21
420.060865
 31
0.0
  0
LINE
  5
259
100
AcDbEntity
  8
GRIPPER
100
AcDbLine
 10
412.985823
 20
444.560865
 30
0.0
 11
412.985823
 21
419.560865
 31
0.0
  0
LINE
  5
25E
100
AcDbEntity
  8
GRIPPER
100
AcDbLine
 10
396.685823
 20
419.560865
 30
0.0
 11
396.685823
 21
405.060865
 31
0.0
  0
LINE
  5
25F
100
AcDbEntity
  8
GRIPPER
100
AcDbLine
 10
396.685823
 20
419.560865
 30
0.0
 11
396.685823
 21
405.060865
 31
0.0
  0
LINE
  5
260
100
AcDbEntity
  8
GRIPPER
  6
CENTER2
100
AcDbLine
 10
405.685823
 20
423.071852
 30
0.0
 11
405.685823
 21
400.264161
 31
0.0
  0
LINE
  5
261
100
AcDbEntity
  8
GRIPPER
  6
CENTER2
100
AcDbLine
 10
391.19511
 20
432.060865
 30
0.0
 11
418.21419
 21
432.060865
 31
0.0
  0
LINE
  5
262
100
AcDbEntity
  8
GRIPPER
100
AcDbLine
 10
405.185823
 20
420.060865
 30
0.0
 11
396.185823
 21
420.060865
 31
0.0
  0
LINE
  5
263
100
AcDbEntity
  8
GRIPPER
100
AcDbLine
 10
412.985823
 20
419.560865
 30
0.0
 11
396.685823
 21
419.560865
 31
0.0
  0
ARC
  5
26B
100
AcDbEntity
  8
GRIPPER
100
AcDbCircle
 10
395.935047
 20
433.57641
 30
0.0
 40
2.762516
100
AcDbArc
 50
146.728274
 51
213.271726
  0
LINE
  5
26C
100
AcDbEntity
  8
GRIPPER
100
AcDbLine
 10
396.185823
 20
435.091954
 30
0.0
 11
396.185823
 21
429.029776
 31
0.0
  0
ARC
  5
26D
100
AcDbEntity
  8
GRIPPER
100
AcDbCircle
 10
395.935047
 20
430.545321
 30
0.0
 40
2.762516
100
AcDbArc
 50
146.728274
 51
213.271726
  0
LINE
  5
26E
100
AcDbEntity
  8
GRIPPER
100
AcDbLine
 10
393.625368
 20
429.029776
 30
0.0
 11
396.185823
 21
429.029776
 31
0.0
  0
LINE
  5
26F
100
AcDbEntity
  8
GRIPPER
100
AcDbLine
 10
393.185823
 20
433.847075
 30
0.0
 11
393.185823
 21
430.274656
 31
0.0
  0
LINE
  5
270
100
AcDbEntity
  8
GRIPPER
100
AcDbLine
 10
393.625368
 20
432.060865
 30
0.0
 11
396.185823
 21
432.060865
 31
0.0
  0
LINE
  5
271
100
AcDbEntity
  8
GRIPPER
100
AcDbLine
 10
393.625368
 20
435.091954
 30
0.0
 11
396.185823
 21
435.091954
 31
0.0
  0
LINE
  5
274
100
AcDbEntity
  8
GRIPPER
100
AcDbLine
 10
407.63881
 20
460.060865
 30
0.0
 11
369.554048
 21
460.060865
 31
0.0
  0
LINE
  5
275
100
AcDbEntity
  8
GRIPPER
100
AcDbLine
 10
385.324739
 20
454.560865
 30
0.0
 11
376.185823
 21
454.560865
 31
0.0
  0
LINE
  5
276
100
AcDbEntity
  8
GRIPPER
100
AcDbLine
 10
385.324739
 20
465.560865
 30
0.0
 11
376.185823
 21
465.560865
 31
0.0
  0
LINE
  5
278
100
AcDbEntity
  8
GRIPPER
100
AcDbLine
 10
376.185823
 20
465.560865
 30
0.0
 11
376.185823
 21
454.560865
 31
0.0
  0
LINE
  5
279
100
AcDbEntity
  8
GRIPPER
100
AcDbLine
 10
378.185823
 20
465.560865
 30
0.0
 11
378.185823
 21
454.560865
 31
0.0
  0
LINE
  5
27A
100
AcDbEntity
  8
GRIPPER
100
AcDbLine
 10
392.685823
 20
466.460865
 30
0.0
 11
392.685823
 21
453.660865
 31
0.0
  0
LINE
  5
27B
100
AcDbEntity
  8
GRIPPER
100
AcDbLine
 10
394.185823
 20
466.460865
 30
0.0
 11
394.185823
 21
453.660865
 31
0.0
  0
ARC
  5
27C
100
AcDbEntity
  8
GRIPPER
100
AcDbCircle
 10
388.967073
 20
463.310865
 30
0.0
 40
4.28125
100
AcDbArc
 50
140.033787
 51
219.966213
  0
LINE
  5
27E
100
AcDbEntity
  8
GRIPPER
100
AcDbLine
 10
392.685823
 20
459.560865
 30
0.0
 11
385.685823
 21
459.560865
 31
0.0
  0
LINE
  5
27F
100
AcDbEntity
  8
GRIPPER
100
AcDbLine
 10
392.685823
 20
460.560865
 30
0.0
 11
385.685823
 21
460.560865
 31
0.0
  0
LINE
  5
280
100
AcDbEntity
  8
GRIPPER
100
AcDbLine
 10
392.685823
 20
454.060865
 30
0.0
 11
385.685823
 21
454.060865
 31
0.0
  0
LINE
  5
282
100
AcDbEntity
  8
GRIPPER
100
AcDbLine
 10
385.685823
 20
460.060865
 30
0.0
 11
385.685823
 21
459.560865
 31
0.0
  0
ARC
  5
283
100
AcDbEntity
  8
GRIPPER
100
AcDbCircle
 10
388.967073
 20
456.810865
 30
0.0
 40
4.28125
100
AcDbArc
 50
140.033787
 51
219.966213
  0
LINE
  5
284
100
AcDbEntity
  8
GRIPPER
100
AcDbLine
 10
385.685823
 20
460.560865
 30
0.0
 11
385.685823
 21
460.060865
 31
0.0
  0
LINE
  5
287
100
AcDbEntity
  8
GRIPPER
100
AcDbLine
 10
396.685823
 20
457.560865
 30
0.0
 11
396.685823
 21
460.760865
 31
0.0
  0
LINE
  5
288
100
AcDbEntity
  8
GRIPPER
100
AcDbLine
 10
396.185823
 20
453.660865
 30
0.0
 11
392.685823
 21
453.660865
 31
0.0
  0
LINE
  5
289
100
AcDbEntity
  8
GRIPPER
100
AcDbLine
 10
396.185823
 20
457.060865
 30
0.0
 11
396.685823
 21
457.560865
 31
0.0
  0
LINE
  5
28A
100
AcDbEntity
  8
GRIPPER
  6
CENTRE2
100
AcDbLine
 10
410.235823
 20
464.614088
 30
0.0
 11
410.235823
 21
451.726423
 31
0.0
  0
ARC
  5
28B
100
AcDbEntity
  8
GRIPPER
100
AcDbCircle
 10
408.185823
 20
450.060865
 30
0.0
 40
3.0
100
AcDbArc
 50
90.0
 51
180.0
  0
LINE
  5
28C
100
AcDbEntity
  8
GRIPPER
100
AcDbLine
 10
405.385823
 20
449.560865
 30
0.0
 11
408.385823
 21
452.560865
 31
0.0
  0
LINE
  5
28D
100
AcDbEntity
  8
GRIPPER
100
AcDbLine
 10
405.185823
 20
444.560865
 30
0.0
 11
412.985823
 21
444.560865
 31
0.0
  0
LINE
  5
28E
100
AcDbEntity
  8
GRIPPER
100
AcDbLine
 10
405.385823
 20
449.560865
 30
0.0
 11
405.385823
 21
444.560865
 31
0.0
  0
LINE
  5
28F
100
AcDbEntity
  8
GRIPPER
100
AcDbLine
 10
410.235823
 20
463.010865
 30
0.0
 11
411.714753
 21
463.010865
 31
0.0
  0
LINE
  5
290
100
AcDbEntity
  8
GRIPPER
100
AcDbLine
 10
410.235823
 20
460.760865
 30
0.0
 11
413.985823
 21
460.760865
 31
0.0
  0
LINE
  5
291
100
AcDbEntity
  8
GRIPPER
100
AcDbLine
 10
410.235823
 20
463.010865
 30
0.0
 11
408.756894
 21
463.010865
 31
0.0
  0
LINE
  5
292
100
AcDbEntity
  8
GRIPPER
100
AcDbLine
 10
410.235823
 20
460.760865
 30
0.0
 11
406.485823
 21
460.760865
 31
0.0
  0
LINE
  5
293
100
AcDbEntity
  8
GRIPPER
100
AcDbLine
 10
406.485823
 20
461.259335
 30
0.0
 11
406.485823
 21
460.760865
 31
0.0
  0
ARC
  5
294
100
AcDbEntity
  8
GRIPPER
100
AcDbCircle
 10
408.970096
 20
460.386299
 30
0.0
 40
2.633212
100
AcDbArc
 50
94.644133
 51
160.637248
  0
LINE
  5
295
100
AcDbEntity
  8
GRIPPER
100
AcDbLine
 10
413.985823
 20
461.259335
 30
0.0
 11
413.985823
 21
460.760865
 31
0.0
  0
ARC
  5
296
100
AcDbEntity
  8
GRIPPER
100
AcDbCircle
 10
411.50155
 20
460.386299
 30
0.0
 40
2.633212
100
AcDbArc
 50
19.362752
 51
85.355867
  0
LINE
  5
298
100
AcDbEntity
  8
GRIPPER
100
AcDbLine
 10
392.685823
 20
466.060865
 30
0.0
 11
385.685823
 21
466.060865
 31
0.0
  0
LINE
  5
29C
100
AcDbEntity
  8
GRIPPER
100
AcDbLine
 10
396.185823
 20
466.460865
 30
0.0
 11
392.685823
 21
466.460865
 31
0.0
  0
LINE
  5
29D
100
AcDbEntity
  8
GRIPPER
100
AcDbLine
 10
460.185823
 20
450.060865
 30
0.0
 11
460.185823
 21
420.060865
 31
0.0
  0
LINE
  5
29E
100
AcDbEntity
  8
GRIPPER
100
AcDbLine
 10
452.385823
 20
444.560865
 30
0.0
 11
452.385823
 21
419.560865
 31
0.0
  0
LINE
  5
2A0
100
AcDbEntity
  8
GRIPPER
  6
CENTER2
100
AcDbLine
 10
474.176537
 20
432.060865
 30
0.0
 11
447.157457
 21
432.060865
 31
0.0
  0
LINE
  5
2A1
100
AcDbEntity
  8
GRIPPER
100
AcDbLine
 10
452.385823
 20
419.560865
 30
0.0
 11
468.685823
 21
419.560865
 31
0.0
  0
LINE
  5
2A2
100
AcDbEntity
  8
GRIPPER
100
AcDbLine
 10
437.435823
 20
405.060865
 30
0.0
 11
468.685823
 21
405.060865
 31
0.0
  0
LINE
  5
2A3
100
AcDbEntity
  8
GRIPPER
100
AcDbLine
 10
460.185823
 20
420.060865
 30
0.0
 11
469.185823
 21
420.060865
 31
0.0
  0
LINE
  5
2A4
100
AcDbEntity
  8
GRIPPER
  6
CENTER2
100
AcDbLine
 10
459.685823
 20
423.071852
 30
0.0
 11
459.685823
 21
400.264161
 31
0.0
  0
LINE
  5
2A6
100
AcDbEntity
  8
GRIPPER
100
AcDbLine
 10
432.685823
 20
408.260865
 30
0.0
 11
427.935823
 21
408.260865
 31
0.0
  0
LINE
  5
2A8
100
AcDbEntity
  8
GRIPPER
100
AcDbLine
 10
427.935823
 20
408.260865
 30
0.0
 11
427.935823
 21
405.060865
 31
0.0
  0
POINT
  5
2A9
100
AcDbEntity
  8
GRIPPER
  6
BYBLOCK
100
AcDbPoint
 10
427.935823
 20
405.060865
 30
0.0
  0
LINE
  5
2AB
100
AcDbEntity
  8
GRIPPER
100
AcDbLine
 10
432.685823
 20
408.260865
 30
0.0
 11
437.435823
 21
408.260865
 31
0.0
  0
LINE
  5
2AC
100
AcDbEntity
  8
GRIPPER
100
AcDbLine
 10
437.435823
 20
408.260865
 30
0.0
 11
437.435823
 21
405.060865
 31
0.0
  0
POINT
  5
2AD
100
AcDbEntity
  8
GRIPPER
  6
BYBLOCK
100
AcDbPoint
 10
437.435823
 20
405.060865
 30
0.0
  0
LINE
  5
2AE
100
AcDbEntity
  8
GRIPPER
  6
CENTRE2
100
AcDbLine
 10
448.546652
 20
427.246865
 30
0.0
 11
432.685823
 21
427.246865
 31
0.0
  0
LINE
  5
2B0
100
AcDbEntity
  8
GRIPPER
100
AcDbLine
 10
468.685823
 20
419.560865
 30
0.0
 11
468.685823
 21
405.060865
 31
0.0
  0
LINE
  5
2B1
100
AcDbEntity
  8
GRIPPER
100
AcDbLine
 10
468.685823
 20
419.560865
 30
0.0
 11
468.685823
 21
405.060865
 31
0.0
  0
LINE
  5
2B9
100
AcDbEntity
  8
GRIPPER
100
AcDbLine
 10
472.185823
 20
433.847075
 30
0.0
 11
472.185823
 21
430.274656
 31
0.0
  0
ARC
  5
2BA
100
AcDbEntity
  8
GRIPPER
100
AcDbCircle
 10
469.436599
 20
433.57641
 30
0.0
 40
2.762516
100
AcDbArc
 50
326.728274
 51
33.271726
  0
LINE
  5
2BB
100
AcDbEntity
  8
GRIPPER
100
AcDbLine
 10
469.185823
 20
435.091954
 30
0.0
 11
469.185823
 21
429.029776
 31
0.0
  0
LINE
  5
2BC
100
AcDbEntity
  8
GRIPPER
100
AcDbLine
 10
471.746278
 20
429.029776
 30
0.0
 11
469.185823
 21
429.029776
 31
0.0
  0
LINE
  5
2BD
100
AcDbEntity
  8
GRIPPER
100
AcDbLine
 10
471.746278
 20
432.060865
 30
0.0
 11
469.185823
 21
432.060865
 31
0.0
  0
ARC
  5
2BE
100
AcDbEntity
  8
GRIPPER
100
AcDbCircle
 10
469.436599
 20
430.545321
 30
0.0
 40
2.762516
100
AcDbArc
 50
326.728274
 51
33.271726
  0
LINE
  5
2BF
100
AcDbEntity
  8
GRIPPER
100
AcDbLine
 10
471.746278
 20
435.091954
 30
0.0
 11
469.185823
 21
435.091954
 31
0.0
  0
LINE
  5
2C0
100
AcDbEntity
  8
GRIPPER
100
AcDbLine
 10
468.685823
 20
460.760865
 30
0.0
 11
432.685823
 21
460.760865
 31
0.0
  0
LINE
  5
2C1
100
AcDbEntity
  8
GRIPPER
100
AcDbLine
 10
468.685823
 20
457.560865
 30
0.0
 11
432.685823
 21
457.560865
 31
0.0
  0
LINE
  5
2C2
100
AcDbEntity
  8
GRIPPER
100
AcDbLine
 10
456.985823
 20
452.560865
 30
0.0
 11
432.685823
 21
452.560865
 31
0.0
  0
LINE
  5
2C3
100
AcDbEntity
  8
GRIPPER
100
AcDbLine
 10
457.185823
 20
453.060865
 30
0.0
 11
432.685823
 21
453.060865
 31
0.0
  0
LINE
  5
2C4
100
AcDbEntity
  8
GRIPPER
  6
CENTRE2
100
AcDbLine
 10
455.135823
 20
464.614088
 30
0.0
 11
455.135823
 21
451.726423
 31
0.0
  0
LINE
  5
2C5
100
AcDbEntity
  8
GRIPPER
100
AcDbLine
 10
459.985823
 20
449.560865
 30
0.0
 11
456.985823
 21
452.560865
 31
0.0
  0
ARC
  5
2C6
100
AcDbEntity
  8
GRIPPER
100
AcDbCircle
 10
457.185823
 20
450.060865
 30
0.0
 40
3.0
100
AcDbArc
 50
360.0
 51
90.0
  0
LINE
  5
2C7
100
AcDbEntity
  8
GRIPPER
100
AcDbLine
 10
460.185823
 20
444.560865
 30
0.0
 11
452.385823
 21
444.560865
 31
0.0
  0
LINE
  5
2C8
100
AcDbEntity
  8
GRIPPER
100
AcDbLine
 10
459.985823
 20
449.560865
 30
0.0
 11
459.985823
 21
444.560865
 31
0.0
  0
ARC
  5
2C9
100
AcDbEntity
  8
GRIPPER
100
AcDbCircle
 10
453.870096
 20
460.386299
 30
0.0
 40
2.633212
100
AcDbArc
 50
94.644133
 51
160.637248
  0
LINE
  5
2CA
100
AcDbEntity
  8
GRIPPER
100
AcDbLine
 10
455.135823
 20
460.760865
 30
0.0
 11
451.385823
 21
460.760865
 31
0.0
  0
LINE
  5
2CB
100
AcDbEntity
  8
GRIPPER
100
AcDbLine
 10
451.385823
 20
461.259335
 30
0.0
 11
451.385823
 21
460.760865
 31
0.0
  0
ARC
  5
2CC
100
AcDbEntity
  8
GRIPPER
100
AcDbCircle
 10
456.40155
 20
460.386299
 30
0.0
 40
2.633212
100
AcDbArc
 50
19.362752
 51
85.355867
  0
LINE
  5
2CD
100
AcDbEntity
  8
GRIPPER
100
AcDbLine
 10
455.135823
 20
463.010865
 30
0.0
 11
453.656894
 21
463.010865
 31
0.0
  0
LINE
  5
2CE
100
AcDbEntity
  8
GRIPPER
100
AcDbLine
 10
458.885823
 20
461.259335
 30
0.0
 11
458.885823
 21
460.760865
 31
0.0
  0
LINE
  5
2CF
100
AcDbEntity
  8
GRIPPER
100
AcDbLine
 10
455.135823
 20
460.760865
 30
0.0
 11
458.885823
 21
460.760865
 31
0.0
  0
LINE
  5
2D0
100
AcDbEntity
  8
GRIPPER
100
AcDbLine
 10
455.135823
 20
463.010865
 30
0.0
 11
456.614753
 21
463.010865
 31
0.0
  0
LINE
  5
2D1
100
AcDbEntity
  8
GRIPPER
100
AcDbLine
 10
432.685823
 20
479.351663
 30
0.0
 11
432.067364
 21
479.970122
 31
0.0
  0
LINE
  5
2D2
100
AcDbEntity
  8
GRIPPER
100
AcDbLine
 10
468.685823
 20
457.560865
 30
0.0
 11
468.685823
 21
460.760865
 31
0.0
  0
LINE
  5
2D3
100
AcDbEntity
  8
GRIPPER
100
AcDbLine
 10
469.185823
 20
457.060865
 30
0.0
 11
468.685823
 21
457.560865
 31
0.0
  0
ARC
  5
2E6
100
AcDbEntity
  8
GRIPPER
100
AcDbCircle
 10
211.598091
 20
654.504409
 30
0.0
 40
52.5
100
AcDbArc
 50
287.75279
 51
154.381243
  0
ARC
  5
2E7
100
AcDbEntity
  8
GRIPPER
100
AcDbCircle
 10
211.598091
 20
654.504409
 30
0.0
 40
52.5
100
AcDbArc
 50
154.381243
 51
205.618757
  0
CIRCLE
  5
2E8
100
AcDbEntity
  8
GRIPPER
100
AcDbCircle
 10
256.048091
 20
654.504409
 30
0.0
 40
3.25
  0
CIRCLE
  5
2E9
100
AcDbEntity
  8
GRIPPER
100
AcDbCircle
 10
167.148091
 20
654.504409
 30
0.0
 40
3.25
  0
CIRCLE
  5
2EA
100
AcDbEntity
  8
GRIPPER
100
AcDbCircle
 10
211.598091
 20
654.504409
 30
0.0
 40
44.45
  0
LINE
  5
2EB
100
AcDbEntity
  8
GRIPPER
  6
CENTRE2
100
AcDbLine
 10
211.598091
 20
710.162015
 30
0.0
 11
211.598091
 21
576.773918
 31
0.0
  0
LINE
  5
2EC
100
AcDbEntity
  8
GRIPPER
  6
CONTINUOUS
100
AcDbLine
 10
293.098091
 20
690.504409
 30
0.0
 11
293.098091
 21
618.504409
 31
0.0
  0
LINE
  5
2ED
100
AcDbEntity
  8
GRIPPER
  6
CONTINUOUS
100
AcDbLine
 10
130.098091
 20
690.504409
 30
0.0
 11
130.098091
 21
618.504409
 31
0.0
  0
LINE
  5
2EE
100
AcDbEntity
  8
GRIPPER
  6
CONTINUOUS
100
AcDbLine
 10
140.098091
 20
690.504409
 30
0.0
 11
140.098091
 21
654.504409
 31
0.0
  0
CIRCLE
  5
2EF
100
AcDbEntity
  8
GRIPPER
100
AcDbCircle
 10
211.598091
 20
654.504409
 30
0.0
 40
39.705
  0
LINE
  5
2F3
100
AcDbEntity
  8
GRIPPER
  6
CENTRE2
100
AcDbLine
 10
112.098091
 20
654.504409
 30
0.0
 11
305.598091
 21
654.504409
 31
0.0
  0
ARC
  5
2F4
100
AcDbEntity
  8
GRIPPER
100
AcDbCircle
 10
211.598091
 20
654.504409
 30
0.0
 40
52.5
100
AcDbArc
 50
205.618757
 51
252.24721
  0
CIRCLE
  5
2F5
100
AcDbEntity
  8
GRIPPER
100
AcDbCircle
 10
189.373091
 20
616.009579
 30
0.0
 40
3.25
  0
LINE
  5
2F6
100
AcDbEntity
  8
GRIPPER
100
AcDbLine
 10
159.098091
 20
512.620815
 30
0.0
 11
195.598091
 21
512.620815
 31
0.0
  0
LINE
  5
2F7
100
AcDbEntity
  8
GRIPPER
100
AcDbLine
 10
175.098091
 20
498.560865
 30
0.0
 11
248.098091
 21
498.560865
 31
0.0
  0
LINE
  5
2F8
100
AcDbEntity
  8
GRIPPER
100
AcDbLine
 10
159.148091
 20
517.060865
 30
0.0
 11
264.048091
 21
517.060865
 31
0.0
  0
LINE
  5
2F9
100
AcDbEntity
  8
GRIPPER
  6
CENTRE2
100
AcDbLine
 10
191.873091
 20
620.339706
 30
0.0
 11
186.848091
 21
611.636151
 31
0.0
  0
LINE
  5
315
100
AcDbEntity
  8
GRIPPER
100
AcDbLine
 10
175.098091
 20
498.560865
 30
0.0
 11
161.577239
 21
498.560865
 31
0.0
  0
LINE
  5
317
100
AcDbEntity
  8
GRIPPER
100
AcDbLine
 10
159.098091
 20
512.620815
 30
0.0
 11
161.577239
 21
498.560865
 31
0.0
  0
LINE
  5
319
100
AcDbEntity
  8
GRIPPER
100
AcDbLine
 10
159.098091
 20
517.060865
 30
0.0
 11
159.098091
 21
512.620815
 31
0.0
  0
LINE
  5
31B
100
AcDbEntity
  8
GRIPPER
100
AcDbLine
 10
130.598091
 20
618.004409
 30
0.0
 11
173.862166
 21
618.004409
 31
0.0
  0
LINE
  5
31C
100
AcDbEntity
  8
GRIPPER
  6
CONTINUOUS
100
AcDbLine
 10
140.098091
 20
618.504409
 30
0.0
 11
165.098091
 21
618.504409
 31
0.0
  0
CIRCLE
  5
31D
100
AcDbEntity
  8
GRIPPER
100
AcDbCircle
 10
144.348091
 20
632.054409
 30
0.0
 40
3.75
  0
LINE
  5
31E
100
AcDbEntity
  8
GRIPPER
  6
CONTINUOUS
100
AcDbLine
 10
140.098091
 20
618.504409
 30
0.0
 11
140.098091
 21
654.504409
 31
0.0
  0
LINE
  5
320
100
AcDbEntity
  8
GRIPPER
100
AcDbLine
 10
130.598091
 20
618.004409
 30
0.0
 11
130.098091
 21
618.504409
 31
0.0
  0
LINE
  5
321
100
AcDbEntity
  8
GRIPPER
  6
CONTINUOUS
100
AcDbLine
 10
165.098091
 20
618.504409
 30
0.0
 11
165.098091
 21
630.132293
 31
0.0
  0
LINE
  5
322
100
AcDbEntity
  8
GRIPPER
  6
CENTRE2
100
AcDbLine
 10
172.148091
 20
654.504409
 30
0.0
 11
162.098091
 21
654.504409
 31
0.0
  0
LINE
  5
323
100
AcDbEntity
  8
GRIPPER
100
AcDbLine
 10
227.598091
 20
512.620815
 30
0.0
 11
264.098091
 21
512.620815
 31
0.0
  0
LWPOLYLINE
  5
324
100
AcDbEntity
  8
GRIPPER
100
AcDbPolyline
 90
        6
 70
     1
 43
0.0
 10
217.571356
 20
505.560865
 10
214.571356
 20
510.757018
 10
208.571356
 20
510.757018
 10
205.571356
 20
505.560865
 10
208.571356
 20
500.364713
 10
214.571356
 20
500.364713
  0
ARC
  5
325
100
AcDbEntity
  8
GRIPPER
100
AcDbCircle
 10
211.598091
 20
506.560865
 30
0.0
 40
8.0
100
AcDbArc
 50
243.283891
 51
296.716109
  0
LINE
  5
326
100
AcDbEntity
  8
GRIPPER
  6
CENTRE2
100
AcDbLine
 10
203.38676
 20
505.560865
 30
0.0
 11
219.809422
 21
505.560865
 31
0.0
  0
CIRCLE
  5
327
100
AcDbEntity
  8
GRIPPER
100
AcDbCircle
 10
211.571356
 20
505.560865
 30
0.0
 40
6.4
  0
CIRCLE
  5
328
100
AcDbEntity
  8
GRIPPER
100
AcDbCircle
 10
211.571356
 20
505.560865
 30
0.0
 40
3.0
  0
ARC
  5
329
100
AcDbEntity
  8
GRIPPER
100
AcDbCircle
 10
221.923163
 20
524.918396
 30
0.0
 40
29.055807
100
AcDbArc
 50
205.039315
 51
241.371124
  0
LINE
  5
32A
100
AcDbEntity
  8
GRIPPER
100
AcDbLine
 10
195.598091
 20
517.060865
 30
0.0
 11
195.598091
 21
512.620815
 31
0.0
  0
ARC
  5
32B
100
AcDbEntity
  8
GRIPPER
100
AcDbCircle
 10
201.273018
 20
524.918396
 30
0.0
 40
29.055807
100
AcDbArc
 50
298.628876
 51
334.960685
  0
LINE
  5
32C
100
AcDbEntity
  8
GRIPPER
100
AcDbLine
 10
227.598091
 20
517.060865
 30
0.0
 11
227.598091
 21
512.620815
 31
0.0
  0
LINE
  5
32E
100
AcDbEntity
  8
GRIPPER
100
AcDbLine
 10
248.098091
 20
498.560865
 30
0.0
 11
261.618942
 21
498.560865
 31
0.0
  0
LINE
  5
330
100
AcDbEntity
  8
GRIPPER
100
AcDbLine
 10
264.098091
 20
512.620815
 30
0.0
 11
261.618942
 21
498.560865
 31
0.0
  0
LINE
  5
332
100
AcDbEntity
  8
GRIPPER
100
AcDbLine
 10
264.098091
 20
517.060865
 30
0.0
 11
264.098091
 21
512.620815
 31
0.0
  0
LINE
  5
334
100
AcDbEntity
  8
GRIPPER
100
AcDbLine
 10
249.334015
 20
618.004409
 30
0.0
 11
292.598091
 21
618.004409
 31
0.0
  0
LINE
  5
339
100
AcDbEntity
  8
GRIPPER
100
AcDbLine
 10
217.998091
 20
604.504409
 30
0.0
 11
217.998091
 21
601.004409
 31
0.0
  0
LINE
  5
33A
100
AcDbEntity
  8
GRIPPER
100
AcDbLine
 10
205.198091
 20
604.504409
 30
0.0
 11
205.198091
 21
601.004409
 31
0.0
  0
ARC
  5
33C
100
AcDbEntity
  8
GRIPPER
100
AcDbCircle
 10
208.348091
 20
597.285659
 30
0.0
 40
4.28125
100
AcDbArc
 50
230.033787
 51
309.966213
  0
LINE
  5
33D
100
AcDbEntity
  8
GRIPPER
100
AcDbLine
 10
217.998091
 20
602.504409
 30
0.0
 11
205.198091
 21
602.504409
 31
0.0
  0
LINE
  5
33E
100
AcDbEntity
  8
GRIPPER
100
AcDbLine
 10
217.998091
 20
601.004409
 30
0.0
 11
205.198091
 21
601.004409
 31
0.0
  0
LINE
  5
33F
100
AcDbEntity
  8
GRIPPER
100
AcDbLine
 10
217.098091
 20
586.504409
 30
0.0
 11
206.098091
 21
586.504409
 31
0.0
  0
LINE
  5
340
100
AcDbEntity
  8
GRIPPER
100
AcDbLine
 10
217.098091
 20
584.504409
 30
0.0
 11
206.098091
 21
584.504409
 31
0.0
  0
LINE
  5
342
100
AcDbEntity
  8
GRIPPER
100
AcDbLine
 10
206.098091
 20
593.643324
 30
0.0
 11
206.098091
 21
584.504409
 31
0.0
  0
LINE
  5
346
100
AcDbEntity
  8
GRIPPER
100
AcDbLine
 10
205.598091
 20
601.004409
 30
0.0
 11
205.598091
 21
594.004409
 31
0.0
  0
LINE
  5
348
100
AcDbEntity
  8
GRIPPER
100
AcDbLine
 10
217.098091
 20
593.643324
 30
0.0
 11
217.098091
 21
584.504409
 31
0.0
  0
ARC
  5
34C
100
AcDbEntity
  8
GRIPPER
100
AcDbCircle
 10
214.848091
 20
597.285659
 30
0.0
 40
4.28125
100
AcDbArc
 50
230.033787
 51
309.966213
  0
LINE
  5
34D
100
AcDbEntity
  8
GRIPPER
100
AcDbLine
 10
212.098091
 20
594.004409
 30
0.0
 11
211.598091
 21
594.004409
 31
0.0
  0
LINE
  5
34E
100
AcDbEntity
  8
GRIPPER
100
AcDbLine
 10
211.598091
 20
594.004409
 30
0.0
 11
211.098091
 21
594.004409
 31
0.0
  0
LINE
  5
34F
100
AcDbEntity
  8
GRIPPER
100
AcDbLine
 10
217.598091
 20
601.004409
 30
0.0
 11
217.598091
 21
594.004409
 31
0.0
  0
LINE
  5
350
100
AcDbEntity
  8
GRIPPER
100
AcDbLine
 10
212.098091
 20
601.004409
 30
0.0
 11
212.098091
 21
594.004409
 31
0.0
  0
LINE
  5
351
100
AcDbEntity
  8
GRIPPER
100
AcDbLine
 10
211.098091
 20
601.004409
 30
0.0
 11
211.098091
 21
594.004409
 31
0.0
  0
LINE
  5
352
100
AcDbEntity
  8
GRIPPER
100
AcDbLine
 10
195.59028
 20
604.504409
 30
0.0
 11
227.605901
 21
604.504409
 31
0.0
  0
CIRCLE
  5
355
100
AcDbEntity
  8
GRIPPER
100
AcDbCircle
 10
233.823091
 20
616.009579
 30
0.0
 40
3.25
  0
LINE
  5
356
100
AcDbEntity
  8
GRIPPER
  6
CENTRE2
100
AcDbLine
 10
231.323091
 20
620.339706
 30
0.0
 11
236.348091
 21
611.636151
 31
0.0
  0
LINE
  5
359
100
AcDbEntity
  8
GRIPPER
  6
CENTRE2
100
AcDbLine
 10
251.048091
 20
654.504409
 30
0.0
 11
261.098091
 21
654.504409
 31
0.0
  0
LINE
  5
35E
100
AcDbEntity
  8
GRIPPER
100
AcDbLine
 10
293.098091
 20
618.504409
 30
0.0
 11
292.598091
 21
618.004409
 31
0.0
  0
CIRCLE
  5
361
100
AcDbEntity
  8
GRIPPER
100
AcDbCircle
 10
189.373091
 20
692.999238
 30
0.0
 40
3.25
  0
LINE
  5
362
100
AcDbEntity
  8
GRIPPER
  6
CENTRE2
100
AcDbLine
 10
191.873091
 20
688.669111
 30
0.0
 11
186.848091
 21
697.372666
 31
0.0
  0
LINE
  5
364
100
AcDbEntity
  8
GRIPPER
100
AcDbLine
 10
130.598091
 20
691.004409
 30
0.0
 11
173.862166
 21
691.004409
 31
0.0
  0
LINE
  5
365
100
AcDbEntity
  8
GRIPPER
  6
CONTINUOUS
100
AcDbLine
 10
140.098091
 20
690.504409
 30
0.0
 11
165.098091
 21
690.504409
 31
0.0
  0
CIRCLE
  5
366
100
AcDbEntity
  8
GRIPPER
100
AcDbCircle
 10
144.348091
 20
676.954409
 30
0.0
 40
3.75
  0
LINE
  5
368
100
AcDbEntity
  8
GRIPPER
100
AcDbLine
 10
130.098091
 20
690.504409
 30
0.0
 11
130.598091
 21
691.004409
 31
0.0
  0
LINE
  5
369
100
AcDbEntity
  8
GRIPPER
  6
CONTINUOUS
100
AcDbLine
 10
165.098091
 20
690.504409
 30
0.0
 11
165.098091
 21
678.876524
 31
0.0
  0
LINE
  5
36C
100
AcDbEntity
  8
GRIPPER
100
AcDbLine
 10
249.334015
 20
691.004409
 30
0.0
 11
292.598091
 21
691.004409
 31
0.0
  0
CIRCLE
  5
36F
100
AcDbEntity
  8
GRIPPER
100
AcDbCircle
 10
211.598091
 20
698.954409
 30
0.0
 40
4.0
  0
CIRCLE
  5
370
100
AcDbEntity
  8
GRIPPER
100
AcDbCircle
 10
233.823091
 20
692.999238
 30
0.0
 40
3.25
  0
LINE
  5
371
100
AcDbEntity
  8
GRIPPER
  6
CENTRE2
100
AcDbLine
 10
231.323091
 20
688.669111
 30
0.0
 11
236.348091
 21
697.372666
 31
0.0
  0
LINE
  5
373
100
AcDbEntity
  8
GRIPPER
100
AcDbLine
 10
292.598091
 20
691.004409
 30
0.0
 11
293.098091
 21
690.504409
 31
0.0
  0
LINE
  5
377
100
AcDbEntity
  8
GRIPPER
100
AcDbLine
 10
382.685823
 20
516.560865
 30
0.0
 11
485.185823
 21
516.560865
 31
0.0
  0
LINE
  5
378
100
AcDbEntity
  8
GRIPPER
100
AcDbLine
 10
382.685823
 20
512.620815
 30
0.0
 11
485.185823
 21
512.620815
 31
0.0
  0
LINE
  5
379
100
AcDbEntity
  8
GRIPPER
100
AcDbLine
 10
382.685823
 20
498.560865
 30
0.0
 11
482.706675
 21
498.560865
 31
0.0
  0
LINE
  5
37A
100
AcDbEntity
  8
GRIPPER
100
AcDbLine
 10
432.685823
 20
517.060865
 30
0.0
 11
382.685823
 21
517.060865
 31
0.0
  0
LINE
  5
37D
100
AcDbEntity
  8
GRIPPER
  6
CENTRE2
100
AcDbLine
 10
389.191612
 20
505.560865
 30
0.0
 11
356.445645
 21
505.560865
 31
0.0
  0
LINE
  5
37E
100
AcDbEntity
  8
GRIPPER
100
AcDbLine
 10
382.685823
 20
499.160865
 30
0.0
 11
379.185823
 21
499.160865
 31
0.0
  0
LINE
  5
37F
100
AcDbEntity
  8
GRIPPER
100
AcDbLine
 10
382.685823
 20
511.960865
 30
0.0
 11
379.185823
 21
511.960865
 31
0.0
  0
LINE
  5
381
100
AcDbEntity
  8
GRIPPER
100
AcDbLine
 10
380.685823
 20
511.960865
 30
0.0
 11
380.685823
 21
499.160865
 31
0.0
  0
LINE
  5
382
100
AcDbEntity
  8
GRIPPER
100
AcDbLine
 10
379.185823
 20
511.960865
 30
0.0
 11
379.185823
 21
499.160865
 31
0.0
  0
LINE
  5
383
100
AcDbEntity
  8
GRIPPER
100
AcDbLine
 10
372.185823
 20
505.560865
 30
0.0
 11
372.185823
 21
505.060865
 31
0.0
  0
LINE
  5
384
100
AcDbEntity
  8
GRIPPER
100
AcDbLine
 10
364.685823
 20
511.060865
 30
0.0
 11
364.685823
 21
500.060865
 31
0.0
  0
LINE
  5
385
100
AcDbEntity
  8
GRIPPER
100
AcDbLine
 10
362.685823
 20
511.060865
 30
0.0
 11
362.685823
 21
500.060865
 31
0.0
  0
LINE
  5
387
100
AcDbEntity
  8
GRIPPER
100
AcDbLine
 10
371.824739
 20
500.060865
 30
0.0
 11
362.685823
 21
500.060865
 31
0.0
  0
ARC
  5
38B
100
AcDbEntity
  8
GRIPPER
100
AcDbCircle
 10
375.467073
 20
502.310865
 30
0.0
 40
4.28125
100
AcDbArc
 50
140.033787
 51
219.966213
  0
LINE
  5
38C
100
AcDbEntity
  8
GRIPPER
100
AcDbLine
 10
379.185823
 20
499.560865
 30
0.0
 11
372.185823
 21
499.560865
 31
0.0
  0
LINE
  5
38D
100
AcDbEntity
  8
GRIPPER
100
AcDbLine
 10
379.185823
 20
505.060865
 30
0.0
 11
372.185823
 21
505.060865
 31
0.0
  0
LINE
  5
38F
100
AcDbEntity
  8
GRIPPER
100
AcDbLine
 10
371.824739
 20
511.060865
 30
0.0
 11
362.685823
 21
511.060865
 31
0.0
  0
LINE
  5
393
100
AcDbEntity
  8
GRIPPER
100
AcDbLine
 10
379.185823
 20
511.560865
 30
0.0
 11
372.185823
 21
511.560865
 31
0.0
  0
LINE
  5
394
100
AcDbEntity
  8
GRIPPER
100
AcDbLine
 10
379.185823
 20
506.060865
 30
0.0
 11
372.185823
 21
506.060865
 31
0.0
  0
LINE
  5
395
100
AcDbEntity
  8
GRIPPER
100
AcDbLine
 10
372.185823
 20
506.060865
 30
0.0
 11
372.185823
 21
505.560865
 31
0.0
  0
ARC
  5
396
100
AcDbEntity
  8
GRIPPER
100
AcDbCircle
 10
375.467073
 20
508.810865
 30
0.0
 40
4.28125
100
AcDbArc
 50
140.033787
 51
219.966213
  0
LINE
  5
397
100
AcDbEntity
  8
GRIPPER
100
AcDbLine
 10
382.685823
 20
517.060865
 30
0.0
 11
382.685823
 21
498.560865
 31
0.0
  0
ARC
  5
39B
100
AcDbEntity
  8
GRIPPER
100
AcDbCircle
 10
395.685823
 20
498.060865
 30
0.0
 40
0.5
100
AcDbArc
 50
0.0
 51
90.0
  0
LINE
  5
39D
100
AcDbEntity
  8
GRIPPER
100
AcDbLine
 10
432.685823
 20
517.060865
 30
0.0
 11
484.685823
 21
517.060865
 31
0.0
  0
LINE
  5
39E
100
AcDbEntity
  8
GRIPPER
  6
CENTER
100
AcDbLine
 10
477.185823
 20
523.780111
 30
0.0
 11
477.185823
 21
493.780111
 31
0.0
  0
LINE
  5
3A1
100
AcDbEntity
  8
GRIPPER
100
AcDbLine
 10
485.185823
 20
512.620815
 30
0.0
 11
482.706675
 21
498.560865
 31
0.0
  0
ARC
  5
3A3
100
AcDbEntity
  8
GRIPPER
100
AcDbCircle
 10
469.685823
 20
498.060865
 30
0.0
 40
0.5
100
AcDbArc
 50
90.0
 51
180.0
  0
LINE
  5
3A7
100
AcDbEntity
  8
GRIPPER
100
AcDbLine
 10
485.185823
 20
516.560865
 30
0.0
 11
485.185823
 21
512.620815
 31
0.0
  0
LINE
  5
3A8
100
AcDbEntity
  8
GRIPPER
100
AcDbLine
 10
485.185823
 20
516.560865
 30
0.0
 11
484.685823
 21
517.060865
 31
0.0
  0
LWPOLYLINE
  5
3AE
100
AcDbEntity
  8
OUTLINE
100
AcDbPolyline
 90
        2
 70
     0
 43
1.0
 10
396.185823
 20
498.060865
 10
396.185823
 20
466.460865
  0
LWPOLYLINE
  5
3AF
100
AcDbEntity
  8
OUTLINE
100
AcDbPolyline
 90
        2
 70
     0
 43
1.0
 10
469.185823
 20
435.091954
 10
469.185823
 20
498.060865
  0
LWPOLYLINE
  5
3B0
100
AcDbEntity
  8
OUTLINE
100
AcDbPolyline
 90
        2
 70
     0
 43
1.0
 10
248.098091
 20
498.560865
 10
248.098091
 20
479.540685
  0
LWPOLYLINE
  5
3B1
100
AcDbEntity
  8
OUTLINE
100
AcDbPolyline
 90
        2
 70
     0
 43
1.0
 10
175.098091
 20
479.540685
 10
175.098091
 20
498.560865
  0
LWPOLYLINE
  5
3B2
100
AcDbEntity
  8
OUTLINE
100
AcDbPolyline
 90
        2
 70
     0
 43
1.0
 10
127.411794
 20
229.137817
 10
127.411794
 20
301.137817
  0
LWPOLYLINE
  5
3B3
100
AcDbEntity
  8
OUTLINE
100
AcDbPolyline
 90
        2
 70
     0
 43
1.0
 10
290.411794
 20
301.137817
 10
290.411794
 20
229.137817
  0
LWPOLYLINE
  5
3B4
100
AcDbEntity
  8
OUTLINE
100
AcDbPolyline
 90
        2
 70
     0
 43
1.0
 10
171.17587
 20
228.637817
 42
0.423999
 10
246.647719
 20
228.637817
 42
0.423999
  0
LWPOLYLINE
  5
3B5
100
AcDbEntity
  8
OUTLINE
100
AcDbPolyline
 90
        2
 70
     0
 43
1.0
 10
171.17587
 20
228.637817
 10
127.911794
 20
228.637817
  0
LWPOLYLINE
  5
3B6
100
AcDbEntity
  8
OUTLINE
100
AcDbPolyline
 90
        2
 70
     0
 43
1.0
 10
127.911794
 20
228.637817
 10
127.411794
 20
229.137817
  0
LWPOLYLINE
  5
3B7
100
AcDbEntity
  8
OUTLINE
100
AcDbPolyline
 90
        2
 70
     0
 43
1.0
 10
289.911794
 20
228.637817
 10
246.647719
 20
228.637817
  0
LWPOLYLINE
  5
3B8
100
AcDbEntity
  8
OUTLINE
100
AcDbPolyline
 90
        2
 70
     0
 43
1.0
 10
290.411794
 20
229.137817
 10
289.911794
 20
228.637817
  0
LWPOLYLINE
  5
3B9
100
AcDbEntity
  8
OUTLINE
100
AcDbPolyline
 90
        2
 70
     0
 43
1.0
 10
188.966381
 20
405.060865
 10
130.966381
 20
405.060865
  0
LWPOLYLINE
  5
3BA
100
AcDbEntity
  8
OUTLINE
100
AcDbPolyline
 90
        2
 70
     0
 43
1.0
 10
192.903984
 20
315.137817
 42
0.123675
 10
171.17587
 20
301.637817
 42
0.123675
  0
LWPOLYLINE
  5
3BB
100
AcDbEntity
  8
OUTLINE
100
AcDbPolyline
 90
        2
 70
     0
 43
1.0
 10
127.911794
 20
301.637817
 10
171.17587
 20
301.637817
  0
LWPOLYLINE
  5
3BC
100
AcDbEntity
  8
OUTLINE
100
AcDbPolyline
 90
        2
 70
     0
 43
1.0
 10
127.411794
 20
301.137817
 10
127.911794
 20
301.637817
  0
LWPOLYLINE
  5
3BD
100
AcDbEntity
  8
OUTLINE
100
AcDbPolyline
 90
        2
 70
     0
 43
1.0
 10
130.098091
 20
419.660865
 10
130.098091
 20
457.060865
  0
LWPOLYLINE
  5
3BE
100
AcDbEntity
  8
OUTLINE
100
AcDbPolyline
 90
        2
 70
     0
 43
1.0
 10
130.966381
 20
405.060865
 10
130.966381
 20
419.660865
  0
LWPOLYLINE
  5
3BF
100
AcDbEntity
  8
OUTLINE
100
AcDbPolyline
 90
        2
 70
     0
 43
1.0
 10
130.966381
 20
419.660865
 10
130.098091
 20
419.660865
  0
LWPOLYLINE
  5
3C0
100
AcDbEntity
  8
OUTLINE
100
AcDbPolyline
 90
        2
 70
     0
 43
1.0
 10
148.098091
 20
460.760865
 42
0.296181
 10
145.82702
 20
462.512396
 42
0.296181
  0
LWPOLYLINE
  5
3C1
100
AcDbEntity
  8
OUTLINE
100
AcDbPolyline
 90
        2
 70
     0
 43
1.0
 10
130.598091
 20
457.560865
 10
140.098091
 20
457.560865
  0
LWPOLYLINE
  5
3C2
100
AcDbEntity
  8
OUTLINE
100
AcDbPolyline
 90
        2
 70
     0
 43
1.0
 10
130.098091
 20
457.060865
 10
130.598091
 20
457.560865
  0
LWPOLYLINE
  5
3C3
100
AcDbEntity
  8
OUTLINE
100
AcDbPolyline
 90
        2
 70
     0
 43
1.0
 10
140.098091
 20
457.560865
 10
140.098091
 20
460.760865
  0
LWPOLYLINE
  5
3C4
100
AcDbEntity
  8
OUTLINE
100
AcDbPolyline
 90
        2
 70
     0
 43
1.0
 10
140.098091
 20
460.760865
 10
140.598091
 20
460.760865
  0
LWPOLYLINE
  5
3C5
100
AcDbEntity
  8
OUTLINE
100
AcDbPolyline
 90
        2
 70
     0
 43
1.0
 10
142.869161
 20
462.512396
 10
145.82702
 20
462.512396
  0
LWPOLYLINE
  5
3C6
100
AcDbEntity
  8
OUTLINE
100
AcDbPolyline
 90
        2
 70
     0
 43
1.0
 10
142.869161
 20
462.512396
 42
0.296181
 10
140.598091
 20
460.760865
 42
0.296181
  0
LWPOLYLINE
  5
3C7
100
AcDbEntity
  8
OUTLINE
100
AcDbPolyline
 90
        2
 70
     0
 43
1.0
 10
167.098091
 20
457.560865
 10
175.098091
 20
479.540685
  0
LWPOLYLINE
  5
3C8
100
AcDbEntity
  8
OUTLINE
100
AcDbPolyline
 90
        2
 70
     0
 43
1.0
 10
148.098091
 20
460.760865
 10
165.098091
 20
460.760865
  0
LWPOLYLINE
  5
3C9
100
AcDbEntity
  8
OUTLINE
100
AcDbPolyline
 90
        2
 70
     0
 43
1.0
 10
165.098091
 20
460.760865
 10
165.098091
 20
457.560865
  0
LWPOLYLINE
  5
3CA
100
AcDbEntity
  8
OUTLINE
100
AcDbPolyline
 90
        2
 70
     0
 43
1.0
 10
165.098091
 20
457.560865
 10
167.098091
 20
457.560865
  0
LWPOLYLINE
  5
3CB
100
AcDbEntity
  8
OUTLINE
100
AcDbPolyline
 90
        2
 70
     0
 43
1.0
 10
246.647719
 20
301.637817
 10
289.911794
 20
301.637817
  0
LWPOLYLINE
  5
3CC
100
AcDbEntity
  8
OUTLINE
100
AcDbPolyline
 90
        2
 70
     0
 43
1.0
 10
246.647719
 20
301.637817
 42
0.123675
 10
224.919605
 20
315.137817
 42
0.123675
  0
LWPOLYLINE
  5
3CD
100
AcDbEntity
  8
OUTLINE
100
AcDbPolyline
 90
        2
 70
     0
 43
1.0
 10
202.911794
 20
318.637817
 10
202.911794
 20
325.637817
  0
LWPOLYLINE
  5
3CE
100
AcDbEntity
  8
OUTLINE
100
AcDbPolyline
 90
        2
 70
     0
 43
1.0
 10
214.911794
 20
325.637817
 10
214.911794
 20
318.637817
  0
LWPOLYLINE
  5
3CF
100
AcDbEntity
  8
OUTLINE
100
AcDbPolyline
 90
        2
 70
     0
 43
1.0
 10
192.903984
 20
315.137817
 10
202.511794
 20
315.137817
  0
LWPOLYLINE
  5
3D0
100
AcDbEntity
  8
OUTLINE
100
AcDbPolyline
 90
        2
 70
     0
 43
1.0
 10
202.511794
 20
318.637817
 10
202.911794
 20
318.637817
  0
LWPOLYLINE
  5
3D1
100
AcDbEntity
  8
OUTLINE
100
AcDbPolyline
 90
        2
 70
     0
 43
1.0
 10
202.511794
 20
315.137817
 10
202.511794
 20
318.637817
  0
LWPOLYLINE
  5
3D2
100
AcDbEntity
  8
OUTLINE
100
AcDbPolyline
 90
        2
 70
     0
 43
1.0
 10
215.311794
 20
315.137817
 10
224.919605
 20
315.137817
  0
LWPOLYLINE
  5
3D3
100
AcDbEntity
  8
OUTLINE
100
AcDbPolyline
 90
        2
 70
     0
 43
1.0
 10
215.311794
 20
318.637817
 10
215.311794
 20
315.137817
  0
LWPOLYLINE
  5
3D4
100
AcDbEntity
  8
OUTLINE
100
AcDbPolyline
 90
        2
 70
     0
 43
1.0
 10
214.911794
 20
318.637817
 10
215.311794
 20
318.637817
  0
LWPOLYLINE
  5
3D5
100
AcDbEntity
  8
OUTLINE
100
AcDbPolyline
 90
        2
 70
     0
 43
1.0
 10
203.411794
 20
335.137817
 10
214.411794
 20
335.137817
  0
LWPOLYLINE
  5
3D6
100
AcDbEntity
  8
OUTLINE
100
AcDbPolyline
 90
        2
 70
     0
 43
1.0
 10
203.411794
 20
325.998902
 10
203.411794
 20
335.137817
  0
LWPOLYLINE
  5
3D7
100
AcDbEntity
  8
OUTLINE
100
AcDbPolyline
 90
        2
 70
     0
 43
1.0
 10
202.911794
 20
325.637817
 10
203.411794
 20
325.998902
  0
LWPOLYLINE
  5
3D8
100
AcDbEntity
  8
OUTLINE
100
AcDbPolyline
 90
        2
 70
     0
 43
1.0
 10
214.411794
 20
335.137817
 10
214.411794
 20
325.998902
  0
LWPOLYLINE
  5
3D9
100
AcDbEntity
  8
OUTLINE
100
AcDbPolyline
 90
        2
 70
     0
 43
1.0
 10
214.411794
 20
325.998902
 10
214.911794
 20
325.637817
  0
LWPOLYLINE
  5
3DA
100
AcDbEntity
  8
OUTLINE
100
AcDbPolyline
 90
        2
 70
     0
 43
1.0
 10
289.911794
 20
301.637817
 10
290.411794
 20
301.137817
  0
LWPOLYLINE
  5
3DB
100
AcDbEntity
  8
OUTLINE
100
AcDbPolyline
 90
        2
 70
     0
 43
1.0
 10
256.098091
 20
457.560865
 10
292.598091
 20
457.560865
  0
LWPOLYLINE
  5
3DC
100
AcDbEntity
  8
OUTLINE
100
AcDbPolyline
 90
        2
 70
     0
 43
1.0
 10
292.2298
 20
405.060865
 10
234.2298
 20
405.060865
  0
LWPOLYLINE
  5
3DD
100
AcDbEntity
  8
OUTLINE
100
AcDbPolyline
 90
        2
 70
     0
 43
1.0
 10
234.2298
 20
405.925865
 10
188.966381
 20
405.925865
  0
LWPOLYLINE
  5
3DE
100
AcDbEntity
  8
OUTLINE
100
AcDbPolyline
 90
        2
 70
     0
 43
1.0
 10
188.966381
 20
405.925865
 10
188.966381
 20
405.060865
  0
LWPOLYLINE
  5
3DF
100
AcDbEntity
  8
OUTLINE
100
AcDbPolyline
 90
        2
 70
     0
 43
1.0
 10
234.2298
 20
405.060865
 10
234.2298
 20
405.925865
  0
LWPOLYLINE
  5
3E0
100
AcDbEntity
  8
OUTLINE
100
AcDbPolyline
 90
        2
 70
     0
 43
1.0
 10
248.098091
 20
479.540685
 10
256.098091
 20
457.560865
  0
LWPOLYLINE
  5
3E1
100
AcDbEntity
  8
OUTLINE
100
AcDbPolyline
 90
        2
 70
     0
 43
1.0
 10
293.098091
 20
457.060865
 10
293.098091
 20
419.660865
  0
LWPOLYLINE
  5
3E2
100
AcDbEntity
  8
OUTLINE
100
AcDbPolyline
 90
        2
 70
     0
 43
1.0
 10
292.2298
 20
419.660865
 10
292.2298
 20
405.060865
  0
LWPOLYLINE
  5
3E3
100
AcDbEntity
  8
OUTLINE
100
AcDbPolyline
 90
        2
 70
     0
 43
1.0
 10
293.098091
 20
419.660865
 10
292.2298
 20
419.660865
  0
LWPOLYLINE
  5
3E4
100
AcDbEntity
  8
OUTLINE
100
AcDbPolyline
 90
        2
 70
     0
 43
1.0
 10
292.598091
 20
457.560865
 10
293.098091
 20
457.060865
  0
LWPOLYLINE
  5
3E5
100
AcDbEntity
  8
OUTLINE
100
AcDbPolyline
 90
        2
 70
     0
 43
1.0
 10
396.685823
 20
405.060865
 10
427.935823
 20
405.060865
  0
LWPOLYLINE
  5
3E6
100
AcDbEntity
  8
OUTLINE
100
AcDbPolyline
 90
        2
 70
     0
 43
1.0
 10
396.185823
 20
453.660865
 10
396.185823
 20
435.091954
  0
LWPOLYLINE
  5
3E7
100
AcDbEntity
  8
OUTLINE
100
AcDbPolyline
 90
        2
 70
     0
 43
1.0
 10
396.685823
 20
420.060865
 10
396.685823
 20
405.060865
  0
LWPOLYLINE
  5
3E8
100
AcDbEntity
  8
OUTLINE
100
AcDbPolyline
 90
        2
 70
     0
 43
1.0
 10
396.185823
 20
429.029776
 10
396.185823
 20
420.060865
  0
LWPOLYLINE
  5
3E9
100
AcDbEntity
  8
OUTLINE
100
AcDbPolyline
 90
        2
 70
     0
 43
1.0
 10
396.185823
 20
420.060865
 10
396.685823
 20
420.060865
  0
LWPOLYLINE
  5
3EA
100
AcDbEntity
  8
OUTLINE
100
AcDbPolyline
 90
        2
 70
     0
 43
1.0
 10
396.185823
 20
435.091954
 10
393.625368
 20
435.091954
  0
LWPOLYLINE
  5
3EB
100
AcDbEntity
  8
OUTLINE
100
AcDbPolyline
 90
        2
 70
     0
 43
1.0
 10
393.625368
 20
435.091954
 10
393.185823
 20
433.305745
  0
LWPOLYLINE
  5
3EC
100
AcDbEntity
  8
OUTLINE
100
AcDbPolyline
 90
        2
 70
     0
 43
1.0
 10
393.185823
 20
433.305745
 10
393.185823
 20
430.815986
  0
LWPOLYLINE
  5
3ED
100
AcDbEntity
  8
OUTLINE
100
AcDbPolyline
 90
        2
 70
     0
 43
1.0
 10
393.185823
 20
430.815986
 10
393.625368
 20
429.029776
  0
LWPOLYLINE
  5
3EE
100
AcDbEntity
  8
OUTLINE
100
AcDbPolyline
 90
        2
 70
     0
 43
1.0
 10
393.625368
 20
429.029776
 10
396.185823
 20
429.029776
  0
LWPOLYLINE
  5
3EF
100
AcDbEntity
  8
OUTLINE
100
AcDbPolyline
 90
        2
 70
     0
 43
1.0
 10
385.324739
 20
465.560865
 10
376.185823
 20
465.560865
  0
LWPOLYLINE
  5
3F0
100
AcDbEntity
  8
OUTLINE
100
AcDbPolyline
 90
        2
 70
     0
 43
1.0
 10
376.185823
 20
454.560865
 10
385.324739
 20
454.560865
  0
LWPOLYLINE
  5
3F1
100
AcDbEntity
  8
OUTLINE
100
AcDbPolyline
 90
        2
 70
     0
 43
1.0
 10
376.185823
 20
465.560865
 10
376.185823
 20
454.560865
  0
LWPOLYLINE
  5
3F2
100
AcDbEntity
  8
OUTLINE
100
AcDbPolyline
 90
        2
 70
     0
 43
1.0
 10
385.685823
 20
454.060865
 10
392.685823
 20
454.060865
  0
LWPOLYLINE
  5
3F3
100
AcDbEntity
  8
OUTLINE
100
AcDbPolyline
 90
        2
 70
     0
 43
1.0
 10
385.324739
 20
454.560865
 10
385.685823
 20
454.060865
  0
LWPOLYLINE
  5
3F4
100
AcDbEntity
  8
OUTLINE
100
AcDbPolyline
 90
        2
 70
     0
 43
1.0
 10
392.685823
 20
454.060865
 10
392.685823
 20
453.660865
  0
LWPOLYLINE
  5
3F5
100
AcDbEntity
  8
OUTLINE
100
AcDbPolyline
 90
        2
 70
     0
 43
1.0
 10
392.685823
 20
453.660865
 10
396.185823
 20
453.660865
  0
LWPOLYLINE
  5
3F6
100
AcDbEntity
  8
OUTLINE
100
AcDbPolyline
 90
        2
 70
     0
 43
1.0
 10
392.685823
 20
466.060865
 10
385.685823
 20
466.060865
  0
LWPOLYLINE
  5
3F7
100
AcDbEntity
  8
OUTLINE
100
AcDbPolyline
 90
        2
 70
     0
 43
1.0
 10
385.685823
 20
466.060865
 10
385.324739
 20
465.560865
  0
LWPOLYLINE
  5
3F8
100
AcDbEntity
  8
OUTLINE
100
AcDbPolyline
 90
        2
 70
     0
 43
1.0
 10
396.185823
 20
466.460865
 10
392.685823
 20
466.460865
  0
LWPOLYLINE
  5
3F9
100
AcDbEntity
  8
OUTLINE
100
AcDbPolyline
 90
        2
 70
     0
 43
1.0
 10
392.685823
 20
466.460865
 10
392.685823
 20
466.060865
  0
LWPOLYLINE
  5
3FA
100
AcDbEntity
  8
OUTLINE
100
AcDbPolyline
 90
        2
 70
     0
 43
1.0
 10
437.435823
 20
405.060865
 10
468.685823
 20
405.060865
  0
LWPOLYLINE
  5
3FB
100
AcDbEntity
  8
OUTLINE
100
AcDbPolyline
 90
        2
 70
     0
 43
1.0
 10
427.935823
 20
408.260865
 10
437.435823
 20
408.260865
  0
LWPOLYLINE
  5
3FC
100
AcDbEntity
  8
OUTLINE
100
AcDbPolyline
 90
        2
 70
     0
 43
1.0
 10
427.935823
 20
405.060865
 10
427.935823
 20
408.260865
  0
LWPOLYLINE
  5
3FD
100
AcDbEntity
  8
OUTLINE
100
AcDbPolyline
 90
        2
 70
     0
 43
1.0
 10
437.435823
 20
408.260865
 10
437.435823
 20
405.060865
  0
LWPOLYLINE
  5
3FE
100
AcDbEntity
  8
OUTLINE
100
AcDbPolyline
 90
        2
 70
     0
 43
1.0
 10
468.685823
 20
405.060865
 10
468.685823
 20
420.060865
  0
LWPOLYLINE
  5
3FF
100
AcDbEntity
  8
OUTLINE
100
AcDbPolyline
 90
        2
 70
     0
 43
1.0
 10
469.185823
 20
420.060865
 10
469.185823
 20
429.029776
  0
LWPOLYLINE
  5
400
100
AcDbEntity
  8
OUTLINE
100
AcDbPolyline
 90
        2
 70
     0
 43
1.0
 10
468.685823
 20
420.060865
 10
469.185823
 20
420.060865
  0
LWPOLYLINE
  5
401
100
AcDbEntity
  8
OUTLINE
100
AcDbPolyline
 90
        2
 70
     0
 43
1.0
 10
469.185823
 20
429.029776
 10
471.746278
 20
429.029776
  0
LWPOLYLINE
  5
402
100
AcDbEntity
  8
OUTLINE
100
AcDbPolyline
 90
        2
 70
     0
 43
1.0
 10
471.746278
 20
429.029776
 10
472.185823
 20
430.815986
  0
LWPOLYLINE
  5
403
100
AcDbEntity
  8
OUTLINE
100
AcDbPolyline
 90
        2
 70
     0
 43
1.0
 10
472.185823
 20
430.815986
 10
472.185823
 20
433.847075
  0
LWPOLYLINE
  5
404
100
AcDbEntity
  8
OUTLINE
100
AcDbPolyline
 90
        2
 70
     0
 43
1.0
 10
472.185823
 20
433.847075
 10
471.746278
 20
435.091954
  0
LWPOLYLINE
  5
405
100
AcDbEntity
  8
OUTLINE
100
AcDbPolyline
 90
        2
 70
     0
 43
1.0
 10
471.746278
 20
435.091954
 10
469.185823
 20
435.091954
  0
LWPOLYLINE
  5
406
100
AcDbEntity
  8
OUTLINE
100
AcDbPolyline
 90
        2
 70
     0
 43
1.0
 10
130.098091
 20
618.504409
 10
130.098091
 20
690.504409
  0
LWPOLYLINE
  5
407
100
AcDbEntity
  8
OUTLINE
100
AcDbPolyline
 90
        2
 70
     0
 43
1.0
 10
293.098091
 20
690.504409
 10
293.098091
 20
618.504409
  0
LWPOLYLINE
  5
408
100
AcDbEntity
  8
OUTLINE
100
AcDbPolyline
 90
        2
 70
     0
 43
1.0
 10
173.862166
 20
618.004409
 42
0.123675
 10
195.59028
 20
604.504409
 42
0.123675
  0
LWPOLYLINE
  5
409
100
AcDbEntity
  8
OUTLINE
100
AcDbPolyline
 90
        2
 70
     0
 43
1.0
 10
159.098091
 20
517.060865
 10
264.098091
 20
517.060865
  0
LWPOLYLINE
  5
40A
100
AcDbEntity
  8
OUTLINE
100
AcDbPolyline
 90
        2
 70
     0
 43
1.0
 10
175.098091
 20
498.560865
 10
161.577239
 20
498.560865
  0
LWPOLYLINE
  5
40B
100
AcDbEntity
  8
OUTLINE
100
AcDbPolyline
 90
        2
 70
     0
 43
1.0
 10
161.577239
 20
498.560865
 10
159.098091
 20
512.620815
  0
LWPOLYLINE
  5
40C
100
AcDbEntity
  8
OUTLINE
100
AcDbPolyline
 90
        2
 70
     0
 43
1.0
 10
159.098091
 20
512.620815
 10
159.098091
 20
517.060865
  0
LWPOLYLINE
  5
40D
100
AcDbEntity
  8
OUTLINE
100
AcDbPolyline
 90
        2
 70
     0
 43
1.0
 10
173.862166
 20
618.004409
 10
130.598091
 20
618.004409
  0
LWPOLYLINE
  5
40E
100
AcDbEntity
  8
OUTLINE
100
AcDbPolyline
 90
        2
 70
     0
 43
1.0
 10
130.598091
 20
618.004409
 10
130.098091
 20
618.504409
  0
LWPOLYLINE
  5
40F
100
AcDbEntity
  8
OUTLINE
100
AcDbPolyline
 90
        2
 70
     0
 43
1.0
 10
261.618942
 20
498.560865
 10
248.098091
 20
498.560865
  0
LWPOLYLINE
  5
410
100
AcDbEntity
  8
OUTLINE
100
AcDbPolyline
 90
        2
 70
     0
 43
1.0
 10
264.098091
 20
512.620815
 10
261.618942
 20
498.560865
  0
LWPOLYLINE
  5
411
100
AcDbEntity
  8
OUTLINE
100
AcDbPolyline
 90
        2
 70
     0
 43
1.0
 10
264.098091
 20
517.060865
 10
264.098091
 20
512.620815
  0
LWPOLYLINE
  5
412
100
AcDbEntity
  8
OUTLINE
100
AcDbPolyline
 90
        2
 70
     0
 43
1.0
 10
292.598091
 20
618.004409
 10
249.334015
 20
618.004409
  0
LWPOLYLINE
  5
413
100
AcDbEntity
  8
OUTLINE
100
AcDbPolyline
 90
        2
 70
     0
 43
1.0
 10
217.998091
 20
604.504409
 10
217.998091
 20
601.004409
  0
LWPOLYLINE
  5
414
100
AcDbEntity
  8
OUTLINE
100
AcDbPolyline
 90
        2
 70
     0
 43
1.0
 10
205.198091
 20
601.004409
 10
205.198091
 20
604.504409
  0
LWPOLYLINE
  5
415
100
AcDbEntity
  8
OUTLINE
100
AcDbPolyline
 90
        2
 70
     0
 43
1.0
 10
227.605901
 20
604.504409
 42
0.123675
 10
249.334015
 20
618.004409
 42
0.123675
  0
LWPOLYLINE
  5
416
100
AcDbEntity
  8
OUTLINE
100
AcDbPolyline
 90
        2
 70
     0
 43
1.0
 10
217.098091
 20
584.504409
 10
206.098091
 20
584.504409
  0
LWPOLYLINE
  5
417
100
AcDbEntity
  8
OUTLINE
100
AcDbPolyline
 90
        2
 70
     0
 43
1.0
 10
206.098091
 20
584.504409
 10
206.098091
 20
593.643324
  0
LWPOLYLINE
  5
418
100
AcDbEntity
  8
OUTLINE
100
AcDbPolyline
 90
        2
 70
     0
 43
1.0
 10
206.098091
 20
593.643324
 10
205.598091
 20
594.004409
  0
LWPOLYLINE
  5
419
100
AcDbEntity
  8
OUTLINE
100
AcDbPolyline
 90
        2
 70
     0
 43
1.0
 10
205.598091
 20
594.004409
 10
205.598091
 20
601.004409
  0
LWPOLYLINE
  5
41A
100
AcDbEntity
  8
OUTLINE
100
AcDbPolyline
 90
        2
 70
     0
 43
1.0
 10
205.598091
 20
601.004409
 10
205.198091
 20
601.004409
  0
LWPOLYLINE
  5
41B
100
AcDbEntity
  8
OUTLINE
100
AcDbPolyline
 90
        2
 70
     0
 43
1.0
 10
217.098091
 20
593.643324
 10
217.098091
 20
584.504409
  0
LWPOLYLINE
  5
41C
100
AcDbEntity
  8
OUTLINE
100
AcDbPolyline
 90
        2
 70
     0
 43
1.0
 10
217.998091
 20
601.004409
 10
217.598091
 20
601.004409
  0
LWPOLYLINE
  5
41D
100
AcDbEntity
  8
OUTLINE
100
AcDbPolyline
 90
        2
 70
     0
 43
1.0
 10
217.598091
 20
601.004409
 10
217.598091
 20
594.004409
  0
LWPOLYLINE
  5
41E
100
AcDbEntity
  8
OUTLINE
100
AcDbPolyline
 90
        2
 70
     0
 43
1.0
 10
217.598091
 20
594.004409
 10
217.098091
 20
593.643324
  0
LWPOLYLINE
  5
41F
100
AcDbEntity
  8
OUTLINE
100
AcDbPolyline
 90
        2
 70
     0
 43
1.0
 10
205.198091
 20
604.504409
 10
195.59028
 20
604.504409
  0
LWPOLYLINE
  5
420
100
AcDbEntity
  8
OUTLINE
100
AcDbPolyline
 90
        2
 70
     0
 43
1.0
 10
227.605901
 20
604.504409
 10
217.998091
 20
604.504409
  0
LWPOLYLINE
  5
421
100
AcDbEntity
  8
OUTLINE
100
AcDbPolyline
 90
        2
 70
     0
 43
1.0
 10
293.098091
 20
618.504409
 10
292.598091
 20
618.004409
  0
LWPOLYLINE
  5
422
100
AcDbEntity
  8
OUTLINE
100
AcDbPolyline
 90
        2
 70
     0
 43
1.0
 10
249.334015
 20
691.004409
 42
0.423999
 10
173.862166
 20
691.004409
 42
0.423999
  0
LWPOLYLINE
  5
423
100
AcDbEntity
  8
OUTLINE
100
AcDbPolyline
 90
        2
 70
     0
 43
1.0
 10
130.598091
 20
691.004409
 10
173.862166
 20
691.004409
  0
LWPOLYLINE
  5
424
100
AcDbEntity
  8
OUTLINE
100
AcDbPolyline
 90
        2
 70
     0
 43
1.0
 10
130.098091
 20
690.504409
 10
130.598091
 20
691.004409
  0
LWPOLYLINE
  5
425
100
AcDbEntity
  8
OUTLINE
100
AcDbPolyline
 90
        2
 70
     0
 43
1.0
 10
249.334015
 20
691.004409
 10
292.598091
 20
691.004409
  0
LWPOLYLINE
  5
426
100
AcDbEntity
  8
OUTLINE
100
AcDbPolyline
 90
        2
 70
     0
 43
1.0
 10
292.598091
 20
691.004409
 10
293.098091
 20
690.504409
  0
LWPOLYLINE
  5
427
100
AcDbEntity
  8
OUTLINE
100
AcDbPolyline
 90
        2
 70
     0
 43
1.0
 10
484.685823
 20
517.060865
 10
382.685823
 20
517.060865
  0
LWPOLYLINE
  5
428
100
AcDbEntity
  8
OUTLINE
100
AcDbPolyline
 90
        2
 70
     0
 43
1.0
 10
382.685823
 20
511.960865
 10
379.185823
 20
511.960865
  0
LWPOLYLINE
  5
429
100
AcDbEntity
  8
OUTLINE
100
AcDbPolyline
 90
        2
 70
     0
 43
1.0
 10
379.185823
 20
499.160865
 10
382.685823
 20
499.160865
  0
LWPOLYLINE
  5
42A
100
AcDbEntity
  8
OUTLINE
100
AcDbPolyline
 90
        2
 70
     0
 43
1.0
 10
362.685823
 20
511.060865
 10
362.685823
 20
500.060865
  0
LWPOLYLINE
  5
42B
100
AcDbEntity
  8
OUTLINE
100
AcDbPolyline
 90
        2
 70
     0
 43
1.0
 10
362.685823
 20
500.060865
 10
371.824739
 20
500.060865
  0
LWPOLYLINE
  5
42C
100
AcDbEntity
  8
OUTLINE
100
AcDbPolyline
 90
        2
 70
     0
 43
1.0
 10
371.824739
 20
500.060865
 10
372.185823
 20
499.560865
  0
LWPOLYLINE
  5
42D
100
AcDbEntity
  8
OUTLINE
100
AcDbPolyline
 90
        2
 70
     0
 43
1.0
 10
372.185823
 20
499.560865
 10
379.185823
 20
499.560865
  0
LWPOLYLINE
  5
42E
100
AcDbEntity
  8
OUTLINE
100
AcDbPolyline
 90
        2
 70
     0
 43
1.0
 10
379.185823
 20
499.560865
 10
379.185823
 20
499.160865
  0
LWPOLYLINE
  5
42F
100
AcDbEntity
  8
OUTLINE
100
AcDbPolyline
 90
        2
 70
     0
 43
1.0
 10
371.824739
 20
511.060865
 10
362.685823
 20
511.060865
  0
LWPOLYLINE
  5
430
100
AcDbEntity
  8
OUTLINE
100
AcDbPolyline
 90
        2
 70
     0
 43
1.0
 10
379.185823
 20
511.960865
 10
379.185823
 20
511.560865
  0
LWPOLYLINE
  5
431
100
AcDbEntity
  8
OUTLINE
100
AcDbPolyline
 90
        2
 70
     0
 43
1.0
 10
379.185823
 20
511.560865
 10
372.185823
 20
511.560865
  0
LWPOLYLINE
  5
432
100
AcDbEntity
  8
OUTLINE
100
AcDbPolyline
 90
        2
 70
     0
 43
1.0
 10
372.185823
 20
511.560865
 10
371.824739
 20
511.060865
  0
LWPOLYLINE
  5
433
100
AcDbEntity
  8
OUTLINE
100
AcDbPolyline
 90
        2
 70
     0
 43
1.0
 10
382.685823
 20
498.560865
 10
395.685823
 20
498.560865
  0
LWPOLYLINE
  5
434
100
AcDbEntity
  8
OUTLINE
100
AcDbPolyline
 90
        2
 70
     0
 43
1.0
 10
382.685823
 20
499.160865
 10
382.685823
 20
498.560865
  0
LWPOLYLINE
  5
435
100
AcDbEntity
  8
OUTLINE
100
AcDbPolyline
 90
        2
 70
     0
 43
1.0
 10
395.685823
 20
498.560865
 10
396.185823
 20
498.060865
  0
LWPOLYLINE
  5
436
100
AcDbEntity
  8
OUTLINE
100
AcDbPolyline
 90
        2
 70
     0
 43
1.0
 10
382.685823
 20
517.060865
 10
382.685823
 20
511.960865
  0
LWPOLYLINE
  5
437
100
AcDbEntity
  8
OUTLINE
100
AcDbPolyline
 90
        2
 70
     0
 43
1.0
 10
482.706675
 20
498.560865
 10
485.185823
 20
512.620815
  0
LWPOLYLINE
  5
438
100
AcDbEntity
  8
OUTLINE
100
AcDbPolyline
 90
        2
 70
     0
 43
1.0
 10
469.685823
 20
498.560865
 10
482.706675
 20
498.560865
  0
LWPOLYLINE
  5
439
100
AcDbEntity
  8
OUTLINE
100
AcDbPolyline
 90
        2
 70
     0
 43
1.0
 10
469.685823
 20
498.560865
 10
469.185823
 20
498.060865
  0
LWPOLYLINE
  5
43A
100
AcDbEntity
  8
OUTLINE
100
AcDbPolyline
 90
        2
 70
     0
 43
1.0
 10
485.185823
 20
512.620815
 10
485.185823
 20
516.560865
  0
LWPOLYLINE
  5
43B
100
AcDbEntity
  8
OUTLINE
100
AcDbPolyline
 90
        2
 70
     0
 43
1.0
 10
485.185823
 20
516.560865
 10
484.685823
 20
517.060865
  0
MTEXT
  5
576
100
AcDbEntity
  8
DIMENSION
 62
     2
100
AcDbMText
 10
352.961728
 20
320.839914
 30
0.0
 40
4.5
 41
0.0
 71
     4
 72
     1
  1
\A1;SPA (GB) Limited\P2065-45 gripper
  0
ENDSEC
  0
SECTION
  2
OBJECTS
  0
DICTIONARY
  5
1A
100
AcDbDictionary
  3
ACAD_GROUP
350
18
  3
ACAD_MLINESTYLE
350
19
  0
DICTIONARY
  5
18
102
{ACAD_REACTORS
330
1A
102
}
100
AcDbDictionary
  0
DICTIONARY
  5
19
102
{ACAD_REACTORS
330
1A
102
}
100
AcDbDictionary
  3
STANDARD
350
1D
  0
MLINESTYLE
  5
1D
102
{ACAD_REACTORS
330
19
102
}
100
AcDbMlineStyle
  2
STANDARD
 70
     0
  3

 62
   256
 51
90.0
 52
90.0
 71
     2
 49
0.5
 62
   256
  6
BYLAYER
 49
-0.5
 62
   256
  6
BYLAYER
  0
ENDSEC
  0
EOF
